<?xml version="1.0" standalone="no"?>
<!DOCTYPE svg PUBLIC "-//W3C//DTD SVG 1.1//EN" "http://www.w3.org/Graphics/SVG/1.1/DTD/svg11.dtd">
<svg xmlns="http://www.w3.org/2000/svg"><metadata>This SVG WebFont was generated by YouWorkForThem.
Copyright Â© 2017 by Enrique Hernandez Vasquez. All rights reserved.</metadata><defs><font horiz-adv-x="1476" id="ywftsvg"><font-face ascent="1638" bbox="-346 -524 2636 1880" cap-height="1331" descent="-410" font-family="" font-stretch="normal" font-weight="600" panose-1="0 0 7 0 0 0 0 0 0 0" underline-position="0" underline-thickness="0" unicode-range="U+0020-FB02" units-per-em="2048" x-height="1024"/><missing-glyph horiz-adv-x="1228"/><glyph d="M958 1147q-59 0 -102 42t-43 101.5t43 102.5t102.5 43t101.5 -43t42 -103q0 -57 -43.5 -100t-100.5 -43zM1067 1024v-1024h-223v850h-391v-850h-222v850h-174v174h174v29q0 180 100.5 279.5t256.5 99.5q88 0 164 -37l8 -17l-51 -139l-19 -8q-39 20 -80 20 q-158 0 -157 -198v-29h614z" glyph-name="uniFB01" horiz-adv-x="1216" unicode="fi"/><glyph d="M1026 1417l18 -12v-1405h-223v1176q-63 76 -186 75q-82 0 -132 -55t-50 -143v-29h280v-174h-280v-850h-222v850h-174v174h174v29q0 168 107.5 273.5t271.5 105.5q119 0 211 -62v29z" glyph-name="uniFB02" horiz-adv-x="1196" unicode="fl"/><glyph glyph-name=".notdef" horiz-adv-x="1228"/><glyph glyph-name="glyph1" horiz-adv-x="0"/><glyph glyph-name="glyph2" horiz-adv-x="681"/><glyph glyph-name="space" horiz-adv-x="479" unicode=" "/><glyph d="M197 381l-13 16l-28 930l12 16h209l12 -16l-24 -930l-15 -16h-153zM272.5 -25q-63.5 0 -108.5 45.5t-45 109t45 108.5t108.5 45t108.5 -45t45 -108.5t-45 -109t-108.5 -45.5z" glyph-name="exclam" horiz-adv-x="546" unicode="!"/><glyph d="M141 819l-39 512h199l-39 -512h-121zM432 819l-39 512h197l-39 -512h-119z" glyph-name="quotedbl" horiz-adv-x="694" unicode="&quot;"/><glyph d="M244 0l51 365h-232l21 147h231l43 307h-231l20 148h232l49 362h178l-49 -362h264l49 362h179l-50 -362h193l-21 -148h-194l-41 -307h192l-20 -147h-193l-51 -365h-178l53 365h-266l-51 -365h-178zM494 512h264l43 307h-264z" glyph-name="numbersign" horiz-adv-x="1259" unicode="#"/><glyph d="M922 414q0 -133 -85 -218t-229 -110v-156h-176v156q-236 33 -366 207v18l106 115h16q59 -74 145.5 -121t170.5 -47q92 0 148.5 43t56.5 111q0 37 -12.5 63.5t-46.5 47t-56.5 30.5t-82.5 30.5t-85 30.5q-61 23 -106.5 45.5t-95.5 61.5t-77.5 95t-27.5 128q0 125 86 210 t227 106v155h176v-158q193 -31 291 -159v-19l-106 -116h-17q-106 133 -264 133q-80 0 -130 -38t-50 -101.5t45 -98.5t139 -72q12 -4 61.5 -21t65.5 -24.5t59 -25t60.5 -29.5t50.5 -34.5t46 -45t31.5 -51.5t25 -64.5t6.5 -76.5z" glyph-name="dollar" horiz-adv-x="1005" unicode="$"/><glyph d="M383 586q-141 0 -229 108.5t-88 282.5q0 176 88 283.5t229 107.5t229 -107.5t88 -283.5q0 -174 -88 -282.5t-229 -108.5zM231 10l1037 1333h180l10 -16l-1034 -1333h-182zM383 735q68 0 111 66.5t43 175.5q0 111 -42 176.5t-112 65.5t-112 -66t-42 -176q0 -109 42 -175.5 t112 -66.5zM1315 -31q-141 0 -229.5 107.5t-88.5 284t88.5 284t229.5 107.5t229 -107.5t88 -284t-88 -284t-229 -107.5zM1314.5 119q69.5 0 111.5 65.5t42 175.5q0 109 -42 175.5t-111.5 66.5t-111.5 -66.5t-42 -175.5q0 -111 42 -176t111.5 -65z" glyph-name="percent" horiz-adv-x="1699" unicode="%"/><glyph d="M1282 143l45 -129l-6 -14q-63 -43 -162 -43q-117 0 -211 70q-137 -72 -301 -72q-244 0 -408.5 146.5t-164.5 361.5q0 256 237 399q-20 37 -30 66q-20 53 -21 112q0 150 101.5 244t267.5 94q215 0 350 -174v-14l-119 -100h-16q-82 121 -207 114q-80 -2 -127 -47t-47 -113 q0 -39 25.5 -91t45 -77.5t78.5 -101.5l357 -475q45 74 45 162q0 131 -92 227v17l137 104h16q143 -143 144 -348q0 -178 -119 -314q35 -27 74 -26q47 0 94 31zM287 463q0 -139 105.5 -236.5t258.5 -97.5q98 0 176 41l-338 442l-73 103q-129 -96 -129 -252z" glyph-name="ampersand" horiz-adv-x="1339" unicode="&amp;"/><glyph d="M141 819l-39 512h199l-39 -512h-121z" glyph-name="quotesingle" horiz-adv-x="403" unicode="'"/><glyph d="M309 634.5q0 -237.5 81 -466.5t224 -406h-231q-141 188 -221 414.5t-80 458t80 460t221 416.5h231q-143 -176 -224 -407.5t-81 -469z" glyph-name="parenleft" horiz-adv-x="636" unicode="("/><glyph d="M23 -238q143 176 224 405.5t81 467t-81 469t-224 407.5h231q141 -188 221 -416.5t80 -460t-80 -457.5t-221 -415h-231z" glyph-name="parenright" horiz-adv-x="636" unicode=")"/><glyph d="M377 1372h145v-244l211 123l74 -125l-213 -122l213 -123l-74 -125l-211 123v-246h-145v246l-211 -123l-74 125l213 123l-213 122l74 125l211 -123v244z" glyph-name="asterisk" horiz-adv-x="899" unicode="*"/><glyph d="M1055 702v-178h-400v-389h-192v389h-402v178h402v385h192v-385h400z" glyph-name="plus" horiz-adv-x="1116" unicode="+"/><glyph d="M143 -328l-57 56v16q137 174 137 229q-57 12 -93 54.5t-36 99.5q0 63 46 109.5t112 46.5q72 0 115 -45t43 -119q2 -158 -248 -447h-19z" glyph-name="comma" horiz-adv-x="505" unicode=","/><glyph d="M125 702h727v-176h-727v176z" glyph-name="hyphen" horiz-adv-x="976" unicode="-"/><glyph d="M241.5 -25q-63.5 0 -108.5 45.5t-45 109t45 108.5t109 45q66 0 110.5 -45t44.5 -108.5t-46 -109t-109.5 -45.5z" glyph-name="period" horiz-adv-x="485" unicode="."/><glyph d="M860 1442h201l8 -17l-819 -1534h-201l-10 17z" glyph-name="slash" horiz-adv-x="1107" unicode="/"/><glyph d="M1194 669.5q0 -315.5 -151.5 -508t-399.5 -192.5q-246 0 -397.5 192.5t-151.5 508t151.5 508t397.5 192.5q248 0 399.5 -192.5t151.5 -508zM319 669.5q0 -225.5 89.5 -364.5t234.5 -139t234.5 139t89.5 364.5t-89.5 365t-234.5 139.5t-234.5 -139.5t-89.5 -365z" glyph-name="zero" horiz-adv-x="1286" unicode="0"/><glyph d="M37 1346h481v-1352h-225v1159h-256v193z" glyph-name="one" horiz-adv-x="704" unicode="1"/><glyph d="M401 180h621v-186h-948v158q76 76 238.5 233.5t224.5 222.5q113 117 163 199t50 160q0 98 -63.5 156.5t-170.5 58.5q-170 0 -299 -160h-18l-115 113v16q180 219 455 219q195 0 313.5 -109.5t118.5 -285.5q0 -184 -219 -434q-101 -115 -351 -361z" glyph-name="two" horiz-adv-x="1099" unicode="2"/><glyph d="M776 719q111 -51 174.5 -143.5t63.5 -208.5q0 -176 -135.5 -287t-352.5 -111q-143 0 -270 57.5t-209 161.5v17l119 117h16q137 -166 336 -166q117 0 191.5 62.5t74.5 160.5q0 113 -87 182.5t-222 69.5h-100v160h106q113 0 187.5 59t74.5 149q0 82 -62.5 133.5 t-162.5 51.5q-168 0 -282 -121h-19l-106 119v18q174 170 434 170q188 0 307 -99.5t119 -254.5q0 -94 -52.5 -172t-142.5 -125z" glyph-name="three" horiz-adv-x="1107" unicode="3"/><glyph d="M678 -6v305h-641v156l713 891h155v-865h191v-182h-191v-305h-227zM289 481h401v500z" glyph-name="four" horiz-adv-x="1169" unicode="4"/><glyph d="M592 901q217 0 351 -128t134 -337q0 -205 -144.5 -336t-369.5 -131q-145 0 -278 59.5t-209 157.5v17l121 114h16q59 -72 150.5 -116.5t183.5 -44.5q133 0 218 78.5t85 201.5q0 127 -82 204t-215 77q-86 0 -161 -37t-118 -90h-18l-143 67l110 689h756v-193h-592l-47 -311 q115 59 252 59z" glyph-name="five" horiz-adv-x="1153" unicode="5"/><glyph d="M627 897q209 0 344 -129t135 -334t-143.5 -335t-366.5 -130q-252 0 -397 162q-111 125 -115 324q-2 295 285 663q104 133 256 291h18l137 -119v-16q-141 -137 -239 -256q-72 -88 -127 -174q100 53 213 53zM596 154q125 0 206 78.5t81 199.5t-82 201t-205 80t-205 -80 t-82 -201t81 -199.5t206 -78.5z" glyph-name="six" horiz-adv-x="1155" unicode="6"/><glyph d="M950 1346v-117l-530 -1235h-223l-11 12l496 1147h-645v193h913z" glyph-name="seven" horiz-adv-x="983" unicode="7"/><glyph d="M891 754q111 -53 173 -147.5t62 -213.5q0 -186 -146 -305t-376 -119q-227 0 -373.5 119t-146.5 305q0 119 61.5 212t171.5 149q-137 96 -137 264q0 156 119 254t305 98q188 0 307 -98t119 -254q0 -170 -139 -264zM604 1194q-90 0 -148.5 -52t-58.5 -132 q0 -82 58.5 -134.5t148.5 -52.5t149.5 52.5t59.5 134.5q0 80 -59.5 132t-149.5 52zM604 147q127 0 211 73t84 183q0 113 -84 187t-211 74t-210 -74t-83 -187q0 -111 83 -183.5t210 -72.5z" glyph-name="eight" horiz-adv-x="1210" unicode="8"/><glyph d="M1071 883q2 -276 -258 -623q-109 -147 -287 -332h-18l-133 123v17q121 115 237 251q68 80 129 175q-96 -53 -194 -54q-215 0 -356.5 130t-141.5 327q2 215 144.5 343t365.5 128q225 0 367.5 -133t144.5 -352zM559 625q125 0 206 79.5t81 200.5t-81 200t-206 79t-206 -79 t-81 -200t82 -200.5t205 -79.5z" glyph-name="nine" horiz-adv-x="1155" unicode="9"/><glyph d="M272 741q-66 0 -110.5 45t-44.5 108.5t46 109t109.5 45.5t108.5 -45.5t45 -109t-45.5 -108.5t-108.5 -45zM272.5 -25q-63.5 0 -109.5 45.5t-46 109t45 108.5t110 45q63 0 108.5 -45t45.5 -108.5t-45 -109t-108.5 -45.5z" glyph-name="colon" horiz-adv-x="542" unicode=":"/><glyph d="M288.5 737q-63.5 0 -109.5 45t-46 110.5t46 111t109.5 45.5t109.5 -45.5t46 -111t-46 -110.5t-109.5 -45zM178 -328l-57 56v16q137 174 137 229q-57 12 -92 54.5t-35 99.5q0 66 45 111t111 45q70 0 112.5 -45t42.5 -119q2 -88 -58 -193.5t-187 -253.5h-19z" glyph-name="semicolon" horiz-adv-x="569" unicode=";"/><glyph d="M909 1217v-189l-608 -369l608 -364v-189l-14 -12l-836 494v141l836 500z" glyph-name="less" horiz-adv-x="1032" unicode="&lt;"/><glyph d="M131 901h979v-168h-979v168zM131 496h979v-168h-979v168z" glyph-name="equal" horiz-adv-x="1241" unicode="="/><glyph d="M137 1229l836 -500v-141l-836 -494l-14 12v189l608 364l-608 369v189z" glyph-name="greater" horiz-adv-x="1032" unicode=">"/><glyph d="M401 362v50q0 82 30 141t95 123q12 12 49 45t56.5 53.5t45 53t38 66.5t12.5 73q0 90 -66.5 144t-179.5 54q-80 0 -152.5 -53t-95.5 -133l-16 -8l-160 51l-6 16q35 135 160 226.5t285 91.5q201 0 324.5 -101.5t123.5 -265.5q0 -45 -13 -90t-29.5 -76.5t-49.5 -70.5 t-51.5 -58.5t-58.5 -56.5t-50 -47q-53 -49 -70.5 -87t-17.5 -91v-50h-203zM504 -37q-61 0 -104.5 43t-43.5 104.5t43 104.5t105 43q59 0 103 -43t44 -104.5t-44 -104.5t-103 -43z" glyph-name="question" horiz-adv-x="1030" unicode="?"/><glyph d="M870 -266q-326 0 -557 222t-231 556q0 338 227.5 558t575.5 220q342 0 568 -206.5t226 -512.5q0 -205 -100 -320.5t-252 -115.5q-162 0 -217 125q-111 -123 -291 -123q-166 0 -273.5 108.5t-107.5 274.5t108.5 277.5t272.5 111.5q152 0 264 -106v102h154v-487 q0 -139 96 -139q72 0 124 77.5t52 214.5q0 252 -179 411t-443 159q-276 0 -454.5 -176.5t-178.5 -452.5q0 -274 175 -451.5t448 -177.5q170 0 335 99h17l71 -105v-16q-176 -127 -430 -127zM844 276q98 0 162.5 66t64.5 180.5t-64.5 180t-162.5 65.5q-102 0 -164 -69.5 t-62 -176t62 -176.5t164 -70z" glyph-name="at" horiz-adv-x="1773" unicode="@"/><glyph d="M760 1331l614 -1313l-10 -18h-227l-119 270h-649l-121 -270h-219l-11 18l619 1313h123zM444 442h500l-248 566z" glyph-name="A" horiz-adv-x="1394" unicode="A"/><glyph d="M954 700q109 -41 175.5 -126t66.5 -203q0 -168 -133 -269.5t-354 -101.5h-535v1331h510q213 0 329.5 -92t116.5 -260q0 -185 -176 -279zM909 956q0 94 -60.5 144.5t-172.5 50.5h-275v-389h275q111 0 172 51t61 143zM686 180q137 0 210 54.5t73 156.5q0 96 -70 154.5 t-186 58.5h-312v-424h285z" glyph-name="B" horiz-adv-x="1280" unicode="B"/><glyph d="M788 -25q-297 0 -499.5 198t-202.5 493t204 492.5t501 197.5q168 0 311 -69.5t241 -192.5v-19l-143 -114h-16q-147 190 -391 190q-203 0 -340.5 -137t-137.5 -348t137.5 -348.5t340.5 -137.5q244 0 391 191h16l143 -115v-18q-96 -123 -239.5 -193t-315.5 -70z" glyph-name="C" horiz-adv-x="1396" unicode="C"/><glyph d="M717 1331q315 0 505.5 -182t190.5 -481q0 -301 -190.5 -484.5t-505.5 -183.5h-543v1331h543zM713 193q213 0 341 129t128 344t-128 344t-341 129h-312v-946h312z" glyph-name="D" horiz-adv-x="1499" unicode="D"/><glyph d="M1098 1139h-697v-377h549v-184h-549v-385h699v-193h-926v1331h924v-192z" glyph-name="E" horiz-adv-x="1189" unicode="E"/><glyph d="M1042 1139h-641v-385h506v-187h-506v-567h-227v1331h868v-192z" glyph-name="F" horiz-adv-x="1085" unicode="F"/><glyph d="M1450 725q4 -27 4 -78q0 -283 -190 -473q-195 -199 -488 -199q-297 0 -493.5 196t-196.5 495q0 297 200.5 493.5t491.5 196.5q162 0 306.5 -68.5t238.5 -189.5v-17l-143 -120h-19q-68 88 -167 139t-212 51q-197 0 -332 -137t-135 -348q0 -213 132.5 -349.5t332.5 -136.5 q190 0 324 129q106 106 117 252h-441v178h652z" glyph-name="G" horiz-adv-x="1517" unicode="G"/><glyph d="M1075 1331h228v-1331h-228v573h-674v-573h-227v1331h227v-565h674v565z" glyph-name="H" unicode="H"/><glyph d="M174 1331h227v-1331h-227v1331z" glyph-name="I" horiz-adv-x="575" unicode="I"/><glyph d="M639 1331h227v-870q0 -242 -120.5 -364t-321.5 -122q-270 0 -418 205v19l137 127h17q102 -145 252 -146q100 0 163.5 67.5t63.5 188.5v895z" glyph-name="J" horiz-adv-x="1026" unicode="J"/><glyph d="M694 727l570 -709l-11 -18h-247l-476 588l-129 -137v-451h-227v1331h227v-614l586 614h254l10 -18z" glyph-name="K" horiz-adv-x="1271" unicode="K"/><glyph d="M1016 193v-193h-842v1331h227v-1138h615z" glyph-name="L" horiz-adv-x="1042" unicode="L"/><glyph d="M1599 0h-210l-93 850l-385 -850h-116l-379 852l-92 -852h-220l162 1331h123l463 -1014l463 1014h121z" glyph-name="M" horiz-adv-x="1701" unicode="M"/><glyph d="M1077 1331h223v-1345h-126l-777 936v-922h-223v1331h127l776 -934v934z" glyph-name="N" unicode="N"/><glyph d="M799 -25q-305 0 -510 198t-205 493t205 492.5t510 197.5t509.5 -197.5t204.5 -492.5t-204.5 -493t-509.5 -198zM799 180q207 0 346 137.5t139 348.5t-139 348t-346 137t-345.5 -137t-138.5 -348t138.5 -348.5t345.5 -137.5z" glyph-name="O" horiz-adv-x="1597" unicode="O"/><glyph d="M700 1331q236 0 363 -109.5t127 -308t-127 -308t-363 -109.5h-299v-496h-227v1331h526zM723 678q111 0 173 60.5t62 168.5q0 111 -62 171.5t-173 60.5h-322v-461h322z" glyph-name="P" horiz-adv-x="1245" unicode="P"/><glyph d="M1513 666q0 -197 -96 -356.5t-262 -248.5l283 -319l-8 -18h-252l-242 264q-63 -12 -137 -13q-305 0 -510 198t-205 493t205 492.5t510 197.5t509.5 -197.5t204.5 -492.5zM315 666q0 -211 138.5 -348.5t345.5 -137.5t346 137.5t139 348.5t-139 348t-346 137t-345.5 -137 t-138.5 -348z" glyph-name="Q" horiz-adv-x="1597" unicode="Q"/><glyph d="M915 561l291 -543l-10 -18h-223l-285 535h-287v-535h-227v1331h535q238 0 363.5 -106.5t125.5 -296.5q0 -137 -74 -231.5t-209 -135.5zM401 1139v-437h328q109 0 173.5 60.5t64.5 159t-64.5 158t-173.5 59.5h-328z" glyph-name="R" horiz-adv-x="1296" unicode="R"/><glyph d="M600 -25q-166 0 -310.5 68t-232.5 186v19l123 127h19q72 -92 178 -147.5t209 -55.5q123 0 195.5 51t72.5 133q0 39 -15.5 70t-36 50.5t-61.5 39t-72.5 29.5t-89 29.5t-94.5 31.5q-74 27 -125 51.5t-111.5 68.5t-92 109.5t-31.5 147.5q0 164 129 268.5t336 104.5 q152 0 273.5 -55.5t193.5 -147.5v-18l-121 -127h-16q-135 158 -326 157q-104 0 -171 -46t-67 -122q0 -53 37 -93t78 -58.5t121 -46.5q12 -4 74.5 -24.5t80 -28t71.5 -29t74.5 -36.5t60.5 -41t57.5 -52.5t39 -61t29.5 -75.5t8 -91q0 -176 -137 -280.5t-350 -104.5z" glyph-name="S" horiz-adv-x="1169" unicode="S"/><glyph d="M684 1139v-1139h-227v1139h-430v192h1087v-192h-430z" glyph-name="T" horiz-adv-x="1140" unicode="T"/><glyph d="M156 1331h227v-782q0 -166 98.5 -267.5t260 -101.5t260 101.5t98.5 267.5v782h221v-778q0 -260 -158.5 -419t-421.5 -159q-264 0 -424.5 159t-160.5 419v778z" glyph-name="U" unicode="U"/><glyph d="M1309 1331l10 -18l-586 -1313h-123l-585 1313l10 18h233l404 -966l411 966h226z" glyph-name="V" horiz-adv-x="1343" unicode="V"/><glyph d="M1911 1331l10 -18l-489 -1313h-121l-338 934l-334 -934h-123l-487 1313l10 18h229l320 -936l325 936h121l332 -946l328 946h217z" glyph-name="W" horiz-adv-x="1947" unicode="W"/><glyph d="M768 682l477 -664l-10 -18h-252l-356 512l-363 -512h-239l-11 18l482 652l-453 643l10 18h252l332 -487l338 487h239l11 -18z" glyph-name="X" horiz-adv-x="1263" unicode="X"/><glyph d="M1280 1313l-504 -813v-500h-227v498l-514 815l10 18h227l394 -643l383 643h221z" glyph-name="Y" horiz-adv-x="1323" unicode="Y"/><glyph d="M358 186h777v-186h-1078v133l742 1012h-705v186h1002v-133z" glyph-name="Z" horiz-adv-x="1187" unicode="Z"/><glyph d="M580 1343h-199v-1413h199v-168h-412v1749h412v-168z" glyph-name="bracketleft" horiz-adv-x="649" unicode="["/><glyph d="M248 1442l819 -1534l-8 -17h-201l-821 1534l10 17h201z" glyph-name="backslash" horiz-adv-x="1105" unicode="\"/><glyph d="M70 1343v168h411v-1749h-411v168h198v1413h-198z" glyph-name="bracketright" horiz-adv-x="649" unicode="]"/><glyph d="M709 1331l499 -762l-8 -12h-196l-363 553l-375 -553h-196l-9 12l514 762h134z" glyph-name="asciicircum" horiz-adv-x="1269" unicode="^"/><glyph d="M96 -78h955v-174h-955v174z" glyph-name="underscore" horiz-adv-x="1146" unicode="_"/><glyph d="M188 1546l387 -278v-13l-67 -100h-12l-420 225v13l100 153h12z" glyph-name="grave" horiz-adv-x="651" unicode="`"/><glyph d="M539 1049q209 0 331.5 -107.5t122.5 -316.5v-625h-192v117q-141 -141 -340 -142q-180 0 -291 90.5t-111 239.5q0 156 121 251t318 95q133 0 286 -63v67q0 96 -74.5 156.5t-191.5 60.5q-162 0 -289 -102h-16l-82 125v16q76 63 189 100.5t219 37.5zM502 139 q111 0 196.5 63.5t87.5 159.5l-2 13v51q-139 70 -264 70q-111 0 -177.5 -51.5t-66.5 -135.5q0 -76 62 -123t164 -47z" glyph-name="a" horiz-adv-x="1128" unicode="a"/><glyph d="M705 1049q225 0 369.5 -154t144.5 -383q0 -227 -145.5 -382t-368.5 -155q-213 0 -357 154v-129h-201v1372l207 25l17 -13v-456q141 121 334 121zM674 170q143 0 232 98.5t89 243.5t-89 243.5t-232 98.5q-137 0 -228.5 -90t-91.5 -252t91.5 -252t228.5 -90z" glyph-name="b" horiz-adv-x="1294" unicode="b"/><glyph d="M627 -25q-238 0 -394.5 154t-156.5 383t156.5 383t394.5 154q264 0 417 -181v-16l-126 -113h-19q-111 115 -268 115q-145 0 -238.5 -97.5t-93.5 -246.5q0 -147 93 -243.5t245 -96.5q164 0 262 115h19l126 -113v-16q-153 -181 -417 -181z" glyph-name="c" horiz-adv-x="1095" unicode="c"/><glyph d="M1130 1397l17 -13v-1384h-201v131q-141 -156 -354 -156q-225 0 -370.5 155t-145.5 382t145.5 382t370.5 155q190 0 332 -121v444zM623 170q137 0 228 90t91 252q0 160 -92 251t-227 91q-143 0 -233.5 -98.5t-90.5 -243.5t90.5 -243.5t233.5 -98.5z" glyph-name="d" horiz-adv-x="1294" unicode="d"/><glyph d="M1116 457h-817q12 -143 107.5 -223t228.5 -80q90 0 177 34.5t142 100.5h19l112 -103v-16q-76 -96 -201.5 -145.5t-254.5 -49.5q-231 0 -391 146.5t-160 388.5q0 231 149.5 385t378.5 154q219 0 365 -142q152 -147 151 -379q0 -44 -6 -71zM602 874q-121 0 -202 -71.5 t-99 -192.5h600q-16 113 -82 178q-82 86 -217 86z" glyph-name="e" horiz-adv-x="1191" unicode="e"/><glyph d="M635 1251q-80 0 -131 -50t-51 -148v-29h305v-174h-305v-850h-222v850h-174v174h174v29q0 186 113 282.5t270 96.5q123 0 203 -48l8 -16l-53 -139l-18 -10q-51 32 -119 32z" glyph-name="f" horiz-adv-x="778" unicode="f"/><glyph d="M922 1024h192v-866q0 -242 -149.5 -366t-378.5 -124q-154 0 -279 56.5t-203 154.5v19l111 114h16q129 -168 355 -168q139 0 228 73t89 212v78q-135 -123 -330 -123q-215 0 -355 138t-140 345q0 205 141 343.5t356 138.5q209 0 347 -138v113zM608 262q135 0 221 85t86 218 t-86 219t-223 86q-135 0 -220 -85t-85 -218q0 -135 85 -220t222 -85z" glyph-name="g" horiz-adv-x="1261" unicode="g"/><glyph d="M675.5 1049q190.5 0 306.5 -120t116 -313v-616h-224v598q0 117 -66.5 187.5t-181 70.5t-186 -70.5t-71.5 -187.5v-598h-222v1372l205 25l17 -13v-462q116 127 306.5 127z" glyph-name="h" horiz-adv-x="1232" unicode="h"/><glyph d="M262 1196q-63 0 -108 46t-45 109.5t45 108.5t108.5 45t109.5 -45t46 -108q0 -66 -45 -111t-111 -45zM152 0v1024h221v-1024h-221z" glyph-name="i" horiz-adv-x="524" unicode="i"/><glyph d="M262 1196q-63 0 -108 46t-45 109.5t45 108.5t108.5 45t109.5 -45t46 -108q0 -66 -45 -111t-111 -45zM152 1024h223v-920q0 -184 -58.5 -278t-210.5 -166h-18l-82 162v16q84 45 115 99.5t31 168.5v918z" glyph-name="j" horiz-adv-x="522" unicode="j"/><glyph d="M649 565l432 -549l-8 -16h-246l-342 444l-114 -120v-324h-224v1372l207 25l17 -13v-841l446 481h242l10 -16z" glyph-name="k" horiz-adv-x="1089" unicode="k"/><glyph d="M152 0v1372l204 25l17 -13v-1384h-221z" glyph-name="l" horiz-adv-x="524" unicode="l"/><glyph d="M1382 1049q188 0 300 -119t112 -314v-616h-223v598q0 119 -62.5 188.5t-171.5 69.5q-113 0 -183.5 -71.5t-70.5 -186.5v-598h-225v598q0 119 -62.5 188.5t-170.5 69.5q-111 0 -181.5 -70.5t-70.5 -187.5v-598h-226v1024h197v-135q119 160 334 160q233 0 342 -179 q126 179 362 179z" glyph-name="m" horiz-adv-x="1929" unicode="m"/><glyph d="M678 1049q193 0 308.5 -120t115.5 -313v-616h-225v598q0 119 -67 188.5t-181 69.5q-113 0 -184.5 -70.5t-71.5 -187.5v-598h-226v1024h197v-133q121 158 334 158z" glyph-name="n" horiz-adv-x="1234" unicode="n"/><glyph d="M629 -25q-238 0 -395.5 154t-157.5 383t157.5 383t395.5 154q240 0 397.5 -154t157.5 -383t-157.5 -383t-397.5 -154zM629 170q145 0 238.5 97.5t93.5 244.5t-93.5 244.5t-238.5 97.5q-143 0 -236.5 -97.5t-93.5 -244.5t93.5 -244.5t236.5 -97.5z" glyph-name="o" horiz-adv-x="1259" unicode="o"/><glyph d="M705 1049q223 0 368.5 -155t145.5 -382t-144.5 -382t-369.5 -155q-195 0 -334 123v-409h-224v1335h197v-121q146 146 361 146zM674 170q143 0 232 98.5t89 243.5t-89 243.5t-232 98.5q-137 0 -228.5 -90t-91.5 -252t91.5 -252t228.5 -90z" glyph-name="p" horiz-adv-x="1294" unicode="p"/><glyph d="M950 1024h197v-1335h-223v409q-139 -123 -332 -123q-225 0 -370.5 155t-145.5 382t145.5 382t370.5 155q213 0 358 -146v121zM623 170q137 0 228 90t91 252q0 160 -92 251t-227 91q-143 0 -233.5 -98.5t-90.5 -243.5t90.5 -243.5t233.5 -98.5z" glyph-name="q" horiz-adv-x="1294" unicode="q"/><glyph d="M774 1016l10 -17l-55 -163l-18 -9q-39 25 -113 25q-102 0 -164.5 -80t-62.5 -205v-567h-224v1024h197v-135q100 160 277 160q85 0 153 -33z" glyph-name="r" horiz-adv-x="782" unicode="r"/><glyph d="M471 -27q-131 0 -241.5 50.5t-178.5 138.5v16l113 113h18q43 -59 122 -98t163 -39q78 0 127 33.5t49 86.5q0 29 -13.5 52.5t-26.5 38t-49 33t-53.5 25.5t-66.5 26q-76 29 -119 48t-97 55t-79.5 87t-25.5 117q0 133 101 214t271 81q113 0 214.5 -47.5t154.5 -122.5v-19 l-113 -108h-16q-98 121 -244 120q-68 0 -109.5 -29.5t-41.5 -76.5t42 -75.5t142 -69.5l21 -9q84 -35 128 -57t97 -62t76.5 -94.5t23.5 -128.5q0 -133 -107.5 -216t-281.5 -83z" glyph-name="s" horiz-adv-x="940" unicode="s"/><glyph d="M715 207l65 -137l-6 -19q-96 -76 -225 -76q-150 0 -244 90.5t-94 260.5v524h-174v174h174v309l207 25l16 -12v-322h311v-174h-311v-510q0 -172 146 -172q70 0 116 47z" glyph-name="t" horiz-adv-x="798" unicode="t"/><glyph d="M838 1024h223v-1024h-197v123q-113 -147 -317 -148q-184 0 -298 119t-114 314v616h223v-608q0 -111 63.5 -179.5t170.5 -68.5q113 0 179.5 70.5t66.5 187.5v598z" glyph-name="u" horiz-adv-x="1208" unicode="u"/><glyph d="M1073 1024l10 -16l-460 -1008h-140l-463 1008l11 16h217l305 -745l319 745h201z" glyph-name="v" horiz-adv-x="1103" unicode="v"/><glyph d="M1561 1024l10 -16l-375 -1008h-141l-260 692l-260 -692h-140l-368 1008l10 16h215l225 -717l260 717h119l260 -709l234 709h211z" glyph-name="w" horiz-adv-x="1593" unicode="w"/><glyph d="M664 516l389 -500l-11 -16h-235l-281 375l-278 -375h-219l-11 16l392 502l-379 490l10 16h235l271 -365l264 365h221l8 -16z" glyph-name="x" horiz-adv-x="1071" unicode="x"/><glyph d="M1053 1024l12 -16l-475 -1086q-63 -141 -137 -197.5t-185 -56.5q-102 0 -168 41l-8 19l49 139l19 6q41 -27 100 -27q43 0 74 21.5t59 87.5l51 111l-417 942l12 16h221l297 -729l295 729h201z" glyph-name="y" horiz-adv-x="1085" unicode="y"/><glyph d="M68 0v156l569 698h-549v170h815v-156l-559 -698h592v-170h-868z" glyph-name="z" horiz-adv-x="995" unicode="z"/><glyph d="M553 -238q-209 0 -290 83t-81 302v218q0 59 -3 87.5t-14 58.5t-37 41t-69 11v148q82 0 102.5 43t20.5 155v217q0 219 81 302t290 83h72v-168h-50q-111 0 -144.5 -36.5t-33.5 -173.5v-279q0 -98 -41 -157.5t-106 -59.5q66 0 106.5 -59.5t40.5 -157.5v-279q0 -137 34 -174 t144 -37h50v-168h-72z" glyph-name="braceleft" horiz-adv-x="675" unicode="{"/><glyph d="M168 -299v1749h172v-1749h-172z" glyph-name="bar" horiz-adv-x="507" unicode="|"/><glyph d="M281 854v279q0 135 -35 172.5t-146 37.5h-49v168h72q209 0 290 -82.5t81 -302.5v-217q0 -59 3 -87.5t14 -58.5t36.5 -41t68.5 -11v-148q-82 0 -102 -43t-20 -155v-218q0 -219 -81 -302t-290 -83h-72v168h49q111 0 146 38t35 173v279q0 98 40.5 157.5t104.5 59.5 q-63 0 -104 59.5t-41 157.5z" glyph-name="braceright" horiz-adv-x="675" unicode="}"/><glyph d="M842 545q-78 0 -230.5 35.5t-234.5 35.5q-49 0 -94 -20.5t-66 -50.5h-16l-78 123v14q29 33 49.5 50.5t74.5 35.5t130 18q90 0 254 -35.5t211 -35.5q117 0 164 71h16l80 -120v-17q-29 -33 -49.5 -50t-76.5 -35.5t-134 -18.5z" glyph-name="asciitilde" horiz-adv-x="1220" unicode="~"/><glyph d="M262 741q-63 0 -108 45t-45 108.5t45 109t108.5 45.5t108.5 -45.5t45 -109t-44 -108.5t-110 -45zM158 -319l-13 16l29 930l12 16h154l14 -16l25 -930l-12 -16h-209z" glyph-name="exclamdown" horiz-adv-x="526" unicode="¡"/><glyph d="M625 1006q-143 0 -235.5 -95.5t-92.5 -243t90 -241.5t242 -94q164 0 260 112h16l123 -106v-19q-129 -152 -354 -174v-170h-176v181q-186 37 -301 178t-115 336q0 193 114.5 333t301.5 179v170h176v-160q225 -23 354 -174v-19l-123 -106h-16q-108 113 -264 113z" glyph-name="cent" horiz-adv-x="1101" unicode="¢"/><glyph d="M674 1171q-100 0 -164 -61t-64 -168v-176h373v-176h-373v-412h613v-178h-963v178h125v412h-119v176h119v176q0 190 128 302t315 112q248 0 399 -187v-16l-121 -109h-16q-111 127 -252 127z" glyph-name="sterling" horiz-adv-x="1134" unicode="£"/><glyph d="M1133 381l139 -135l-142 -137l-143 141q-135 -86 -297 -86q-164 0 -293 86l-147 -141l-141 137l141 135q-96 127 -96 291t94 291l-137 135l141 135l143 -139q135 86 297 86q164 0 295 -88l146 141l141 -135l-139 -135q94 -131 94 -291q0 -164 -96 -291zM692.5 348 q141.5 0 233.5 91t92 232.5t-92 232.5t-233.5 91t-234.5 -91t-93 -232.5t93 -232.5t234.5 -91z" glyph-name="currency" horiz-adv-x="1382" unicode="¤"/><glyph d="M1292 1313l-471 -762h242v-133h-275v-121h275v-133h-275v-164h-227v164h-276v133h276v121h-276v133h241l-479 762l10 18h228l393 -643l383 643h221z" glyph-name="yen" horiz-adv-x="1339" unicode="¥"/><glyph d="M168 1450h172v-752h-172v752zM168 494h172v-793h-172v793z" glyph-name="brokenbar" horiz-adv-x="507" unicode="¦"/><glyph d="M893 1057q-129 129 -305 129q-94 0 -156.5 -41t-62.5 -105q0 -66 62.5 -104.5t195.5 -81.5q80 -27 124 -42t111.5 -49t103 -69t63.5 -89t28 -120q0 -154 -133 -243q113 -96 112 -224q0 -152 -133 -239.5t-336 -87.5q-313 0 -497 200v19l114 117h17q147 -162 356 -162 q109 0 178.5 45t69.5 113q0 27 -9.5 48t-34 40.5t-42 31t-61.5 28.5t-62 23.5t-72 24.5q-94 31 -155.5 56.5t-126 66.5t-96 96.5t-31.5 126.5q0 162 147 250q-127 86 -127 217q0 145 125 234.5t320 89.5q276 0 446 -176v-17l-117 -106h-16zM338 582q0 -47 39 -83t85 -54.5 t135 -48t136 -50.5q102 49 103 139q0 39 -19.5 69t-64.5 55.5t-79 39t-106.5 39t-103.5 35.5q-57 -18 -91 -56t-34 -85z" glyph-name="section" horiz-adv-x="1148" unicode="§"/><glyph d="M242 1196q-59 0 -102.5 43t-43.5 102.5t43 102.5t103 43q61 0 103 -43t42 -102.5t-42 -102.5t-103 -43zM641 1196q-59 0 -102 43t-43 102.5t43 102.5t102 43q61 0 103 -43t42 -102.5t-42 -102.5t-103 -43z" glyph-name="dieresis" horiz-adv-x="882" unicode="¨"/><glyph d="M780 -25q-297 0 -496.5 199t-199.5 492q0 291 200.5 490.5t495.5 199.5q297 0 497 -200t200 -490q0 -293 -200 -492t-497 -199zM780 109q238 0 396.5 159.5t158.5 397t-159.5 397.5t-395 160t-395.5 -160t-160 -397.5t159.5 -397t395.5 -159.5zM801 264q-180 0 -299 116 t-119 288q0 174 119 289.5t299 115.5q205 0 323 -135v-16l-100 -103h-14q-74 90 -197 90q-111 0 -174.5 -68.5t-63.5 -173t61.5 -172t176.5 -67.5q125 0 197 88h14l100 -102v-15q-114 -135 -323 -135z" glyph-name="copyright" horiz-adv-x="1560" unicode="©"/><glyph d="M393 1354q123 0 204 -62.5t81 -173.5v-416h-137v70q-82 -78 -197 -78t-187.5 58.5t-72.5 150.5q0 96 78 148.5t196 52.5q92 0 168 -27v25q0 55 -42 89t-107 34q-119 0 -182 -72h-13l-65 80v12q102 109 276 109zM365 813q70 0 112.5 40t42.5 91v25q-61 25 -147 24 q-55 0 -91 -25.5t-36 -66.5t32 -64.5t87 -23.5z" glyph-name="ordfeminine" horiz-adv-x="798" unicode="ª"/><glyph d="M535 895l-244 -283l244 -282v-13l-109 -104h-12l-340 385v31l340 383h12l109 -105v-12zM909 907v-12l-241 -283l241 -282v-13l-106 -104h-15l-337 385v31l337 383h15z" glyph-name="guillemotleft" horiz-adv-x="1013" unicode="«"/><glyph d="M463 1376q160 0 268.5 -106.5t108.5 -265.5q0 -158 -108.5 -264.5t-268.5 -106.5t-269.5 106.5t-109.5 264.5q0 160 109.5 266t269.5 106zM463 723q121 0 201.5 81t80.5 200q0 121 -80.5 202.5t-201.5 81.5q-119 0 -201 -81t-82 -201.5t81 -201.5t202 -81zM627 1079 q0 -74 -72 -104l88 -162h-111l-79 148h-45v-148h-101v393h168q74 0 113 -34t39 -93zM408 1122v-92h67q23 0 36 13.5t13 31.5q0 47 -49 47h-67z" glyph-name="registered" horiz-adv-x="923" unicode="®"/><glyph d="M236 1391h608v-162h-608v162z" glyph-name="macron" horiz-adv-x="1079" unicode="¯"/><glyph d="M340 827q-109 0 -186.5 78t-77.5 187q0 111 77.5 187.5t186.5 76.5q111 0 187.5 -77t76.5 -187q0 -109 -76.5 -187t-187.5 -78zM340 963q55 0 90 36.5t35 92.5q0 53 -36 91t-89 38q-51 0 -87 -38t-36 -91.5t36 -91t87 -37.5z" glyph-name="degree" horiz-adv-x="681" unicode="°"/><glyph d="M694 819h400v-180h-400v-389h-194v389h-400v180h400v385h194v-385zM100 -43v178h994v-178h-994z" glyph-name="plusminus" horiz-adv-x="1191" unicode="±"/><glyph d="M457 1546h12l100 -153v-13l-419 -225h-15l-65 100v13z" glyph-name="acute" horiz-adv-x="651" unicode="´"/><glyph d="M1335 1292h-473v-1575h-168v844h-108q-238 -2 -384.5 109.5t-146.5 339t145.5 334t385.5 106.5h749v-158zM1192 1151v-1434h-166v1434h166z" glyph-name="paragraph" horiz-adv-x="1415" unicode="¶"/><glyph d="M276 387q-72 0 -122 50t-50 122q0 70 51.5 120t121 50t119.5 -50t50 -120q0 -72 -50 -122t-120 -50z" glyph-name="periodcentered" horiz-adv-x="552" unicode="·"/><glyph d="M348 -524q-152 0 -260 82v16l59 90h19q76 -51 162 -51q127 0 127 88q0 66 -74 86t-162 -4l-37 22l66 205v53l170 3v-56l-33 -110q117 0 179.5 -52.5t62.5 -144.5q0 -102 -77 -164.5t-202 -62.5z" glyph-name="cedilla" horiz-adv-x="684" unicode="¸"/><glyph d="M415.5 696q-147.5 0 -243.5 93.5t-96 236.5t96 236.5t243.5 93.5t244 -93.5t96.5 -236.5t-96.5 -236.5t-244 -93.5zM416 842q78 0 128 51t50 133t-50 133t-128 51t-128 -51t-50 -133t50 -133t128 -51z" glyph-name="ordmasculine" horiz-adv-x="829" unicode="º"/><glyph d="M563 629v-31l-338 -385h-12l-109 104v13l244 282l-244 283v12l109 105h12zM600 1012l340 -383v-31l-340 -385h-12l-109 104v13l244 282l-244 283v12l109 105h12z" glyph-name="guillemotright" horiz-adv-x="1013" unicode="»"/><glyph d="M238 578v612h-175v156h367v-768h-192zM154 10l1036 1333h180l10 -16l-1034 -1333h-182zM1149 -6v145h-361v107l375 508h152v-475h88v-140h-88v-145h-166zM965 279h188v251z" glyph-name="onequarter" horiz-adv-x="1492" unicode="¼"/><glyph d="M238 578v614h-175v154h367v-768h-192zM139 10l1037 1333h180l10 -16l-1034 -1333h-182zM967 -6v104q43 39 140 121t134 119q106 106 107 168q0 47 -32 75.5t-83 28.5q-94 0 -180 -94h-15l-80 92v15q51 57 133.5 97t163.5 40q121 0 197 -64.5t76 -177.5q0 -63 -34 -119.5 t-110 -132.5q-47 -47 -129 -119h295l2 -153h-585z" glyph-name="onehalf" horiz-adv-x="1622" unicode="½"/><glyph d="M508 991q131 -63 131 -192q0 -104 -81 -168t-216 -64q-82 0 -161 35t-120 90v15l74 79h15q68 -80 186 -79q57 0 93 28.5t36 75.5q0 53 -42 86t-110 33h-71v112h84q53 0 88 28t35 73q0 41 -34 66.5t-89 25.5q-94 0 -150 -55h-16l-66 84v14q96 92 252 92q119 0 190.5 -58.5 t71.5 -152.5q0 -111 -100 -168zM272 10l1037 1333h180l10 -16l-1034 -1333h-182zM1245 -6v145h-360v107l375 508h151v-475h88v-140h-88v-145h-166zM1061 279h188v251z" glyph-name="threequarters" horiz-adv-x="1597" unicode="¾"/><glyph d="M518 772q-61 0 -105 43t-44 104.5t44 104.5t105 43q59 0 103.5 -43t44.5 -104.5t-44.5 -104.5t-103.5 -43zM524 -326q-201 0 -324.5 101.5t-123.5 265.5q0 45 13 90t29.5 77t49.5 70.5t51.5 58t58 56.5t50.5 47q53 49 70.5 87t17.5 91v50h202v-50q0 -84 -28.5 -143 t-95.5 -121q-12 -12 -49 -45t-56.5 -53t-45.5 -53t-38 -67t-12 -73q0 -90 67.5 -144t178.5 -54q82 0 154.5 54t92.5 132l19 6l160 -49l4 -16q-35 -135 -160 -226.5t-285 -91.5z" glyph-name="questiondown" horiz-adv-x="1015" unicode="¿"/><glyph d="M885 1458h-17l-438 207v16l94 152h17l405 -262v-17zM760 1331l614 -1313l-10 -18h-227l-119 270h-649l-121 -270h-219l-11 18l619 1313h123zM444 442h500l-248 566z" glyph-name="Agrave" horiz-adv-x="1394" unicode="À"/><glyph d="M532 1458h-16l-59 96v17l403 262h17l94 -152v-16zM760 1331l614 -1313l-10 -18h-227l-119 270h-649l-121 -270h-219l-11 18l619 1313h123zM444 442h500l-248 566z" glyph-name="Aacute" horiz-adv-x="1394" unicode="Á"/><glyph d="M410 1481h-17l-67 108v17l356 200h20l357 -200v-17l-68 -108h-16l-283 137zM760 1331l614 -1313l-10 -18h-227l-119 270h-649l-121 -270h-219l-11 18l619 1313h123zM444 442h500l-248 566z" glyph-name="Acircumflex" horiz-adv-x="1394" unicode="Â"/><glyph d="M397 1507h-8l-14 11v157q47 84 162 84q59 0 171.5 -39t157.5 -39q100 0 129 76h9l16 -10v-158q-49 -84 -162 -84q-61 0 -168.5 39t-159.5 39q-96 0 -133 -76zM760 1331l614 -1313l-10 -18h-227l-119 270h-649l-121 -270h-219l-11 18l619 1313h123zM444 442h500l-248 566z " glyph-name="Atilde" horiz-adv-x="1394" unicode="Ã"/><glyph d="M477 1481q-63 0 -107 44t-44 105q0 63 44 107.5t107 44.5q61 0 105.5 -44t44.5 -108q0 -61 -44.5 -105t-105.5 -44zM919.5 1481q-61.5 0 -105.5 44t-44 105q0 63 44 107.5t105.5 44.5t106.5 -44t45 -108q0 -61 -45 -105t-106.5 -44zM760 1331l614 -1313l-10 -18h-227 l-119 270h-649l-121 -270h-219l-11 18l619 1313h123zM444 442h500l-248 566z" glyph-name="Adieresis" horiz-adv-x="1394" unicode="Ä"/><glyph d="M698.5 1438q-92.5 0 -159 64.5t-66.5 156.5t66.5 156.5t159 64.5t159 -64.5t66.5 -156.5t-66.5 -156.5t-159 -64.5zM698 1751q-37 0 -63.5 -27.5t-26.5 -64.5q0 -39 27 -65.5t63 -26.5q35 0 62.5 27.5t27.5 64.5t-27.5 64.5t-62.5 27.5zM760 1331l614 -1313l-10 -18h-227 l-119 270h-649l-121 -270h-219l-11 18l619 1313h123zM444 442h500l-248 566z" glyph-name="Aring" horiz-adv-x="1394" unicode="Å"/><glyph d="M1219 193h698v-193h-926v270h-579l-189 -270h-241l-9 18l928 1313h1014v-192h-696v-377h548v-184h-548v-385zM532 442h459v656z" glyph-name="AE" horiz-adv-x="2007" unicode="Æ"/><glyph d="M793 1151q-203 0 -340.5 -137t-137.5 -348t137.5 -348.5t340.5 -137.5q244 0 391 191h16l143 -115v-18q-86 -111 -211.5 -178.5t-277.5 -82.5l-20 -65q117 0 179 -52.5t62 -144.5q0 -102 -76.5 -164.5t-201.5 -62.5q-152 0 -260 82v16l59 90h18q76 -51 162 -51 q127 0 127 88q0 66 -73.5 86.5t-161.5 -4.5l-37 23l53 164q-260 37 -429 227t-169 457q0 295 204 492.5t501 197.5q168 0 311 -69.5t241 -192.5v-19l-143 -114h-16q-147 190 -391 190z" glyph-name="Ccedilla" horiz-adv-x="1396" unicode="Ç"/><glyph d="M494 1833l405 -262v-17l-61 -96h-17l-438 207v16l94 152h17zM1098 1139h-697v-377h549v-184h-549v-385h699v-193h-926v1331h924v-192z" glyph-name="Egrave" horiz-adv-x="1189" unicode="È"/><glyph d="M807 1833h16l95 -152v-16l-439 -207h-16l-60 96v17zM1098 1139h-697v-377h549v-184h-549v-385h699v-193h-926v1331h924v-192z" glyph-name="Eacute" horiz-adv-x="1189" unicode="É"/><glyph d="M350 1481h-16l-68 108v17l357 200h20l356 -200v-17l-67 -108h-17l-282 137zM401 193h699v-193h-926v1331h924v-192h-697v-377h549v-184h-549v-385z" glyph-name="Ecircumflex" horiz-adv-x="1189" unicode="Ê"/><glyph d="M416 1481q-63 0 -107.5 44t-44.5 105q0 63 44 107.5t108 44.5q61 0 105 -44t44 -108q0 -61 -44 -105t-105 -44zM858.5 1481q-61.5 0 -105.5 44t-44 105q0 63 44 107.5t105.5 44.5t106.5 -44t45 -108q0 -61 -45 -105t-106.5 -44zM1098 1139h-697v-377h549v-184h-549v-385 h699v-193h-926v1331h924v-192z" glyph-name="Edieresis" horiz-adv-x="1189" unicode="Ë"/><glyph d="M164 1833l405 -262v-17l-61 -96h-16l-439 207v16l94 152h17zM174 1331h227v-1331h-227v1331z" glyph-name="Igrave" horiz-adv-x="575" unicode="Ì"/><glyph d="M416 1833h16l94 -152v-16l-438 -207h-16l-60 96v17zM174 1331h227v-1331h-227v1331z" glyph-name="Iacute" horiz-adv-x="575" unicode="Í"/><glyph d="M293 1806l356 -200v-17l-67 -108h-17l-282 137l-283 -137h-16l-68 108v17l356 200h21zM174 0v1331h227v-1331h-227z" glyph-name="Icircumflex" horiz-adv-x="575" unicode="Î"/><glyph d="M66 1481q-63 0 -107.5 44t-44.5 105q0 63 44 107.5t108 44.5q61 0 105 -44t44 -108q0 -61 -44 -105t-105 -44zM507.5 1481q-61.5 0 -105.5 44t-44 105q0 63 44 107.5t105.5 44.5t106.5 -44t45 -108q0 -61 -45 -105t-106.5 -44zM174 1331h227v-1331h-227v1331z" glyph-name="Idieresis" horiz-adv-x="575" unicode="Ï"/><glyph d="M735 1331q315 0 506 -182t191 -481q0 -301 -190.5 -484.5t-506.5 -183.5h-542v578h-140v180h140v573h542zM731 193q213 0 341 129t128 344t-128 344t-341 129h-311v-381h356v-180h-356v-385h311z" glyph-name="Eth" horiz-adv-x="1517" unicode="Ð"/><glyph d="M414 1507h-11l-14 11v157q49 84 174 84q63 0 183 -39t169 -39q109 0 140 76h10l16 -10v-158q-51 -84 -174 -84q-66 0 -181.5 39t-170.5 39q-104 0 -141 -76zM1077 1331h223v-1345h-126l-777 936v-922h-223v1331h127l776 -934v934z" glyph-name="Ntilde" unicode="Ñ"/><glyph d="M655 1833l406 -262v-17l-62 -96h-16l-438 207v16l94 152h16zM799 -25q-305 0 -510 198t-205 493t205 492.5t510 197.5t509.5 -197.5t204.5 -492.5t-204.5 -493t-509.5 -198zM799 180q207 0 346 137.5t139 348.5t-139 348t-346 137t-345.5 -137t-138.5 -348t138.5 -348.5 t345.5 -137.5z" glyph-name="Ograve" horiz-adv-x="1597" unicode="Ò"/><glyph d="M969 1833h16l94 -152v-16l-438 -207h-16l-60 96v17zM799 -25q-305 0 -510 198t-205 493t205 492.5t510 197.5t509.5 -197.5t204.5 -492.5t-204.5 -493t-509.5 -198zM799 180q207 0 346 137.5t139 348.5t-139 348t-346 137t-345.5 -137t-138.5 -348t138.5 -348.5 t345.5 -137.5z" glyph-name="Oacute" horiz-adv-x="1597" unicode="Ó"/><glyph d="M512 1481h-16l-68 108v17l356 200h21l356 -200v-17l-67 -108h-17l-282 137zM799 1356q305 0 509.5 -197.5t204.5 -492.5t-204.5 -493t-509.5 -198t-510 198t-205 493t205 492.5t510 197.5zM799 180q207 0 346 137.5t139 348.5t-139 348t-346 137t-345.5 -137t-138.5 -348 t138.5 -348.5t345.5 -137.5z" glyph-name="Ocircumflex" horiz-adv-x="1597" unicode="Ô"/><glyph d="M973 1505q-66 0 -181.5 39t-170.5 39q-104 0 -142 -76h-10l-14 11v157q49 84 174 84q63 0 183 -39t169 -39q109 0 139 76h10l17 -10v-158q-51 -84 -174 -84zM799 -25q-305 0 -510 198t-205 493t205 492.5t510 197.5t509.5 -197.5t204.5 -492.5t-204.5 -493t-509.5 -198z M799 180q207 0 346 137.5t139 348.5t-139 348t-346 137t-345.5 -137t-138.5 -348t138.5 -348.5t345.5 -137.5z" glyph-name="Otilde" horiz-adv-x="1597" unicode="Õ"/><glyph d="M578 1481q-63 0 -107.5 44t-44.5 105q0 63 44 107.5t108 44.5q61 0 105 -44t44 -108q0 -61 -44 -105t-105 -44zM1019.5 1481q-61.5 0 -105.5 44t-44 105q0 63 44 107.5t105.5 44.5t106.5 -44t45 -108q0 -61 -45 -105t-106.5 -44zM799 -25q-305 0 -510 198t-205 493 t205 492.5t510 197.5t509.5 -197.5t204.5 -492.5t-204.5 -493t-509.5 -198zM799 180q207 0 346 137.5t139 348.5t-139 348t-346 137t-345.5 -137t-138.5 -348t138.5 -348.5t345.5 -137.5z" glyph-name="Odieresis" horiz-adv-x="1597" unicode="Ö"/><glyph d="M221 186l-135 133l352 351l-352 350l141 139l348 -350l351 352l133 -135l-352 -348l356 -356l-139 -140l-355 357z" glyph-name="multiply" horiz-adv-x="1144" unicode="×"/><glyph d="M1266 1198q117 -96 182 -233.5t65 -298.5q0 -295 -204.5 -493t-509.5 -198q-160 0 -305 62l-97 -146h-211l-10 19l152 227q-244 201 -244 529q0 295 205 492.5t510 197.5q160 0 301 -60l108 164h209l10 -18zM315 666q0 -205 136 -344l530 796q-88 33 -182 33 q-207 0 -345.5 -137t-138.5 -348zM799 180q207 0 346 137.5t139 348.5q0 213 -141 350l-531 -801q89 -35 187 -35z" glyph-name="Oslash" horiz-adv-x="1597" unicode="Ø"/><glyph d="M596 1833l405 -262v-17l-61 -96h-16l-439 207v16l95 152h16zM156 1331h227v-782q0 -166 98.5 -267.5t260 -101.5t260 101.5t98.5 267.5v782h221v-778q0 -260 -158.5 -419t-421.5 -159q-264 0 -424.5 159t-160.5 419v778z" glyph-name="Ugrave" unicode="Ù"/><glyph d="M909 1833h17l94 -152v-16l-438 -207h-17l-59 96v17zM156 1331h227v-782q0 -166 98.5 -267.5t260 -101.5t260 101.5t98.5 267.5v782h221v-778q0 -260 -158.5 -419t-421.5 -159q-264 0 -424.5 159t-160.5 419v778z" glyph-name="Uacute" unicode="Ú"/><glyph d="M453 1481h-17l-67 108v17l356 200h20l357 -200v-17l-68 -108h-16l-283 137zM1100 1331h221v-778q0 -260 -158.5 -419t-421.5 -159q-264 0 -424.5 159t-160.5 419v778h227v-782q0 -166 98.5 -267.5t260 -101.5t260 101.5t98.5 267.5v782z" glyph-name="Ucircumflex" unicode="Û"/><glyph d="M520 1481q-63 0 -107 44t-44 105q0 63 44 107.5t107 44.5q61 0 105.5 -44t44.5 -108q0 -61 -44.5 -105t-105.5 -44zM962.5 1481q-61.5 0 -105.5 44t-44 105q0 63 44 107.5t105.5 44.5t106.5 -44t45 -108q0 -61 -45 -105t-106.5 -44zM156 1331h227v-782 q0 -166 98.5 -267.5t260 -101.5t260 101.5t98.5 267.5v782h221v-778q0 -260 -158.5 -419t-421.5 -159q-264 0 -424.5 159t-160.5 419v778z" glyph-name="Udieresis" unicode="Ü"/><glyph d="M506 1458h-17l-59 96v17l404 262h16l94 -152v-16zM1280 1313l-504 -813v-500h-227v498l-514 815l10 18h227l394 -643l383 643h221z" glyph-name="Yacute" horiz-adv-x="1323" unicode="Ý"/><glyph d="M174 0v1331h227v-244h299q236 0 363 -109.5t127 -308t-127 -309t-363 -108.5h-299v-252h-227zM401 434h322q111 0 173 59.5t62 170t-63.5 171t-171.5 60.5h-322v-461z" glyph-name="Thorn" horiz-adv-x="1267" unicode="Þ"/><glyph d="M913 760q121 -43 186.5 -138.5t65.5 -228.5q0 -190 -128 -304t-320 -114q-160 0 -252 70l-8 18l67 138l19 8q66 -45 149 -45q113 0 185.5 66.5t72.5 183t-81 187.5t-207 71h-103v151h72q96 0 156.5 55.5t60.5 145.5t-64.5 145.5t-167.5 55.5q-109 0 -177 -75t-68 -196 v-954h-224v942q0 215 130.5 345t338.5 130q197 0 323 -106.5t126 -272.5q0 -184 -152 -278z" glyph-name="germandbls" horiz-adv-x="1239" unicode="ß"/><glyph d="M737 1155h-12l-420 225v13l101 153h12l387 -278v-13zM539 1049q209 0 331.5 -107.5t122.5 -316.5v-625h-192v117q-141 -141 -340 -142q-180 0 -291 90.5t-111 239.5q0 156 121 251t318 95q133 0 286 -63v67q0 96 -74.5 156.5t-191.5 60.5q-162 0 -289 -102h-16l-82 125 v16q76 63 189 100.5t219 37.5zM502 139q111 0 196.5 63.5t87.5 159.5l-2 13v51q-139 70 -264 70q-111 0 -177.5 -51.5t-66.5 -135.5q0 -76 62 -123t164 -47z" glyph-name="agrave" horiz-adv-x="1128" unicode="à"/><glyph d="M379 1155h-14l-66 100v13l387 278h12l101 -153v-13zM539 1049q209 0 331.5 -107.5t122.5 -316.5v-625h-192v117q-141 -141 -340 -142q-180 0 -291 90.5t-111 239.5q0 156 121 251t318 95q133 0 286 -63v67q0 96 -74.5 156.5t-191.5 60.5q-162 0 -289 -102h-16l-82 125v16 q76 63 189 100.5t219 37.5zM502 139q111 0 196.5 63.5t87.5 159.5l-2 13v51q-139 70 -264 70q-111 0 -177.5 -51.5t-66.5 -135.5q0 -76 62 -123t164 -47z" glyph-name="aacute" horiz-adv-x="1128" unicode="á"/><glyph d="M297 1169h-12l-74 103v14l330 205h30l330 -205v-14l-74 -103h-12l-258 138zM539 1049q209 0 331.5 -107.5t122.5 -316.5v-625h-192v117q-141 -141 -340 -142q-180 0 -291 90.5t-111 239.5q0 156 121 251t318 95q133 0 286 -63v67q0 96 -74.5 156.5t-191.5 60.5 q-162 0 -289 -102h-16l-82 125v16q76 63 189 100.5t219 37.5zM502 139q111 0 196.5 63.5t87.5 159.5l-2 13v51q-139 70 -264 70q-111 0 -177.5 -51.5t-66.5 -135.5q0 -76 62 -123t164 -47z" glyph-name="acircumflex" horiz-adv-x="1128" unicode="â"/><glyph d="M258 1219h-12l-13 10v145q51 84 170 84q57 0 161 -37t143 -37q115 0 147 72h10l13 -8v-148q-51 -84 -170 -83q-55 0 -154.5 37.5t-151.5 37.5q-110 1 -143 -73zM539 1049q209 0 331.5 -107.5t122.5 -316.5v-625h-192v117q-141 -141 -340 -142q-180 0 -291 90.5 t-111 239.5q0 156 121 251t318 95q133 0 286 -63v67q0 96 -74.5 156.5t-191.5 60.5q-162 0 -289 -102h-16l-82 125v16q76 63 189 100.5t219 37.5zM502 139q111 0 196.5 63.5t87.5 159.5l-2 13v51q-139 70 -264 70q-111 0 -177.5 -51.5t-66.5 -135.5q0 -76 62 -123t164 -47z " glyph-name="atilde" horiz-adv-x="1128" unicode="ã"/><glyph d="M356 1196q-59 0 -102 43t-43 102.5t43 102.5t102 43q61 0 103.5 -43t42.5 -102.5t-42.5 -102.5t-103.5 -43zM756 1196q-59 0 -102.5 43t-43.5 102.5t43 102.5t103 43q61 0 103 -43t42 -102.5t-42 -102.5t-103 -43zM539 1049q209 0 331.5 -107.5t122.5 -316.5v-625h-192 v117q-141 -141 -340 -142q-180 0 -291 90.5t-111 239.5q0 156 121 251t318 95q133 0 286 -63v67q0 96 -74.5 156.5t-191.5 60.5q-162 0 -289 -102h-16l-82 125v16q76 63 189 100.5t219 37.5zM502 139q111 0 196.5 63.5t87.5 159.5l-2 13v51q-139 70 -264 70 q-111 0 -177.5 -51.5t-66.5 -135.5q0 -76 62 -123t164 -47z" glyph-name="adieresis" horiz-adv-x="1128" unicode="ä"/><glyph d="M557 1124q-98 0 -163.5 64.5t-65.5 157t65.5 158t163.5 65.5q96 0 161.5 -65.5t65.5 -157.5q0 -90 -66.5 -156t-160.5 -66zM557 1432q-37 0 -61.5 -25t-24.5 -61q0 -35 24.5 -59.5t61.5 -24.5t60.5 24.5t23.5 59.5q0 37 -23.5 61.5t-60.5 24.5zM539 1049 q209 0 331.5 -107.5t122.5 -316.5v-625h-192v117q-141 -141 -340 -142q-180 0 -291 90.5t-111 239.5q0 156 121 251t318 95q133 0 286 -63v67q0 96 -74.5 156.5t-191.5 60.5q-162 0 -289 -102h-16l-82 125v16q76 63 189 100.5t219 37.5zM502 139q111 0 196.5 63.5 t87.5 159.5l-2 13v51q-139 70 -264 70q-111 0 -177.5 -51.5t-66.5 -135.5q0 -76 62 -123t164 -47z" glyph-name="aring" horiz-adv-x="1128" unicode="å"/><glyph d="M1835 457h-817q12 -143 107.5 -223t228.5 -80q90 0 177 34.5t142 100.5h19l112 -103v-16q-76 -96 -201.5 -145.5t-254.5 -49.5q-139 0 -259 57.5t-196 162.5q-68 -100 -184.5 -160t-247.5 -60q-180 0 -291 90.5t-111 239.5q0 156 121 251t318 95q139 0 286 -63v67 q0 96 -74.5 156.5t-191.5 60.5q-166 0 -289 -100h-16l-82 125v16q76 63 188.5 99.5t219.5 36.5q276 0 389 -175q152 174 397 175q219 0 365 -142q152 -147 151 -379q0 -44 -6 -71zM1321 874q-121 0 -202 -71.5t-99 -192.5h600q-16 113 -82 178q-82 86 -217 86zM502 139 q111 0 197.5 78t86.5 178v31q-139 70 -266 70q-109 0 -175 -51.5t-66 -135.5q0 -76 61.5 -123t161.5 -47z" glyph-name="ae" horiz-adv-x="1910" unicode="æ"/><glyph d="M631 854q-145 0 -238.5 -97.5t-93.5 -246.5q0 -147 93 -243.5t245 -96.5q164 0 262 115h19l126 -113v-16q-131 -156 -350 -176l-20 -68q117 0 179 -52.5t62 -144.5q0 -102 -76.5 -164.5t-201.5 -62.5q-152 0 -260 82v16l59 90h19q76 -51 161 -51q127 0 127 88 q0 66 -73.5 86.5t-161.5 -4.5l-37 23l53 166q-199 35 -323.5 180t-124.5 348q0 229 156.5 383t394.5 154q264 0 417 -181v-16l-126 -113h-19q-110 115 -268 115z" glyph-name="ccedilla" horiz-adv-x="1095" unicode="ç"/><glyph d="M782 1155h-12l-420 225v13l101 153h12l387 -278v-13zM1116 457h-817q12 -143 107.5 -223t228.5 -80q90 0 177 34.5t142 100.5h19l112 -103v-16q-76 -96 -201.5 -145.5t-254.5 -49.5q-231 0 -391 146.5t-160 388.5q0 231 149.5 385t378.5 154q219 0 365 -142 q152 -147 151 -379q0 -44 -6 -71zM602 874q-121 0 -202 -71.5t-99 -192.5h600q-16 113 -82 178q-82 86 -217 86z" glyph-name="egrave" horiz-adv-x="1191" unicode="è"/><glyph d="M424 1155h-14l-66 100v13l387 278h12l101 -153v-13zM1116 457h-817q12 -143 107.5 -223t228.5 -80q90 0 177 34.5t142 100.5h19l112 -103v-16q-76 -96 -201.5 -145.5t-254.5 -49.5q-231 0 -391 146.5t-160 388.5q0 231 149.5 385t378.5 154q219 0 365 -142 q152 -147 151 -379q0 -44 -6 -71zM602 874q-121 0 -202 -71.5t-99 -192.5h600q-16 113 -82 178q-82 86 -217 86z" glyph-name="eacute" horiz-adv-x="1191" unicode="é"/><glyph d="M342 1169h-12l-74 103v14l330 205h30l330 -205v-14l-74 -103h-12l-258 138zM1116 457h-817q12 -143 107.5 -223t228.5 -80q90 0 177 34.5t142 100.5h19l112 -103v-16q-76 -96 -201.5 -145.5t-254.5 -49.5q-231 0 -391 146.5t-160 388.5q0 231 149.5 385t378.5 154 q219 0 365 -142q152 -147 151 -379q0 -44 -6 -71zM602 874q-121 0 -202 -71.5t-99 -192.5h600q-16 113 -82 178q-82 86 -217 86z" glyph-name="ecircumflex" horiz-adv-x="1191" unicode="ê"/><glyph d="M401 1196q-59 0 -102 43t-43 102.5t43 102.5t102 43q61 0 103.5 -43t42.5 -102.5t-42.5 -102.5t-103.5 -43zM801 1196q-59 0 -102.5 43t-43.5 102.5t43 102.5t103 43q61 0 103 -43t42 -102.5t-42 -102.5t-103 -43zM1116 457h-817q12 -143 107.5 -223t228.5 -80 q90 0 177 34.5t142 100.5h19l112 -103v-16q-76 -96 -201.5 -145.5t-254.5 -49.5q-231 0 -391 146.5t-160 388.5q0 231 149.5 385t378.5 154q219 0 365 -142q152 -147 151 -379q0 -44 -6 -71zM602 874q-121 0 -202 -71.5t-99 -192.5h600q-16 113 -82 178q-82 86 -217 86z" glyph-name="edieresis" horiz-adv-x="1191" unicode="ë"/><glyph d="M125 1546l387 -278v-13l-68 -100h-12l-420 225v13l101 153h12zM152 0v1024h221v-1024h-221z" glyph-name="igrave" horiz-adv-x="524" unicode="ì"/><glyph d="M393 1546h13l100 -153v-13l-420 -225h-14l-66 100v13zM152 0v1024h221v-1024h-221z" glyph-name="iacute" horiz-adv-x="524" unicode="í"/><glyph d="M276 1491l299 -205v-14l-67 -103h-10l-236 138l-235 -138h-13l-65 103v14l299 205h28zM152 0v1024h221v-1024h-221z" glyph-name="icircumflex" horiz-adv-x="524" unicode="î"/><glyph d="M61 1196q-59 0 -102 43t-43 102.5t43 102.5t102 43q61 0 103.5 -43t42.5 -102.5t-42.5 -102.5t-103.5 -43zM461 1196q-59 0 -102.5 43t-43.5 102.5t43 102.5t103 43q61 0 103 -43t42 -102.5t-42 -102.5t-103 -43zM152 0v1024h221v-1024h-221z" glyph-name="idieresis" horiz-adv-x="524" unicode="ï"/><glyph d="M793 1114q287 -354 286 -643q-2 -213 -145 -354.5t-359 -141.5q-217 0 -359 138.5t-142 345.5q0 209 139 346t344 137q74 0 141 -18q-47 63 -98 120l-219 -79l-14 14v131l131 47q-55 59 -117 117v16l135 115h16q96 -98 162 -176l264 96l17 -10v-135zM578 158 q127 0 207.5 86t80.5 215q0 131 -79.5 216t-208.5 85t-210 -85t-81 -216t82 -216t209 -85z" glyph-name="eth" horiz-adv-x="1157" unicode="ð"/><glyph d="M356 1219h-12l-12 10v145q51 84 170 84q59 0 161.5 -37t141.5 -37q115 0 147 72h11l12 -8v-148q-51 -84 -170 -83q-55 0 -154.5 37.5t-150.5 37.5q-111 1 -144 -73zM678 1049q193 0 308.5 -120t115.5 -313v-616h-225v598q0 119 -67 188.5t-181 69.5q-113 0 -184.5 -70.5 t-71.5 -187.5v-598h-226v1024h197v-133q121 158 334 158z" glyph-name="ntilde" horiz-adv-x="1234" unicode="ñ"/><glyph d="M492 1546l387 -278v-13l-68 -100h-12l-420 225v13l100 153h13zM629 -25q-238 0 -395.5 154t-157.5 383t157.5 383t395.5 154q240 0 397.5 -154t157.5 -383t-157.5 -383t-397.5 -154zM629 170q145 0 238.5 97.5t93.5 244.5t-93.5 244.5t-238.5 97.5q-143 0 -236.5 -97.5 t-93.5 -244.5t93.5 -244.5t236.5 -97.5z" glyph-name="ograve" horiz-adv-x="1259" unicode="ò"/><glyph d="M760 1546h12l100 -153v-13l-419 -225h-15l-65 100v13zM629 -25q-238 0 -395.5 154t-157.5 383t157.5 383t395.5 154q240 0 397.5 -154t157.5 -383t-157.5 -383t-397.5 -154zM629 170q145 0 238.5 97.5t93.5 244.5t-93.5 244.5t-238.5 97.5q-143 0 -236.5 -97.5 t-93.5 -244.5t93.5 -244.5t236.5 -97.5z" glyph-name="oacute" horiz-adv-x="1259" unicode="ó"/><glyph d="M371 1169h-13l-73 103v14l329 205h31l330 -205v-14l-74 -103h-12l-258 138zM629 1049q240 0 397.5 -154t157.5 -383t-158 -383t-397 -154q-238 0 -395.5 154t-157.5 383t157.5 383t395.5 154zM629 170q145 0 238.5 97.5t93.5 244.5t-93.5 244.5t-238.5 97.5 q-143 0 -236.5 -97.5t-93.5 -244.5t93.5 -244.5t236.5 -97.5z" glyph-name="ocircumflex" horiz-adv-x="1259" unicode="ô"/><glyph d="M780 1217q-55 0 -154.5 37.5t-150.5 37.5q-111 0 -143 -73h-13l-12 10v145q51 84 170 84q59 0 161.5 -37t141.5 -37q115 0 148 72h10l12 -8v-148q-51 -83 -170 -83zM629 -25q-238 0 -395.5 154t-157.5 383t157.5 383t395.5 154q240 0 397.5 -154t157.5 -383t-157.5 -383 t-397.5 -154zM629 170q145 0 238.5 97.5t93.5 244.5t-93.5 244.5t-238.5 97.5q-143 0 -236.5 -97.5t-93.5 -244.5t93.5 -244.5t236.5 -97.5z" glyph-name="otilde" horiz-adv-x="1259" unicode="õ"/><glyph d="M430 1196q-59 0 -102 43t-43 102.5t43 102.5t102 43q61 0 103 -43t42 -102.5t-42 -102.5t-103 -43zM829 1196q-59 0 -102 43t-43 102.5t43 102.5t102 43q61 0 103.5 -43t42.5 -102.5t-42.5 -102.5t-103.5 -43zM629 -25q-238 0 -395.5 154t-157.5 383t157.5 383t395.5 154 q240 0 397.5 -154t157.5 -383t-157.5 -383t-397.5 -154zM629 170q145 0 238.5 97.5t93.5 244.5t-93.5 244.5t-238.5 97.5q-143 0 -236.5 -97.5t-93.5 -244.5t93.5 -244.5t236.5 -97.5z" glyph-name="odieresis" horiz-adv-x="1259" unicode="ö"/><glyph d="M553 831q-61 0 -104 42t-43 103.5t43 104.5t104 43q59 0 102 -43t43 -104.5t-43 -103.5t-102 -42zM88 700h916v-176h-916v176zM553 98q-61 0 -104 42t-43 103.5t43 104.5t104 43q59 0 102 -43t43 -104.5t-43 -103.5t-102 -42z" glyph-name="divide" horiz-adv-x="1091" unicode="÷"/><glyph d="M1018 903q166 -154 166 -391q0 -229 -158 -383t-397 -154q-125 0 -226 43l-81 -116h-207l-11 18l140 199q-168 158 -168 393q0 229 157.5 383t395.5 154q123 0 231 -45l101 145h204l11 -19zM299 512q0 -125 68 -215l374 539q-53 18 -112 18q-143 0 -236.5 -97.5 t-93.5 -244.5zM629 170q145 0 238.5 97.5t93.5 244.5q0 121 -66 213l-375 -539q54 -16 109 -16z" glyph-name="oslash" horiz-adv-x="1259" unicode="ø"/><glyph d="M778 1155h-12l-420 225v13l100 153h13l387 -278v-13zM838 1024h223v-1024h-197v123q-113 -147 -317 -148q-184 0 -298 119t-114 314v616h223v-608q0 -111 63.5 -179.5t170.5 -68.5q113 0 179.5 70.5t66.5 187.5v598z" glyph-name="ugrave" horiz-adv-x="1208" unicode="ù"/><glyph d="M420 1155h-14l-66 100v13l387 278h12l101 -153v-13zM838 1024h223v-1024h-197v123q-113 -147 -317 -148q-184 0 -298 119t-114 314v616h223v-608q0 -111 63.5 -179.5t170.5 -68.5q113 0 179.5 70.5t66.5 187.5v598z" glyph-name="uacute" horiz-adv-x="1208" unicode="ú"/><glyph d="M338 1169h-12l-74 103v14l330 205h30l330 -205v-14l-74 -103h-12l-258 138zM838 1024h223v-1024h-197v123q-113 -147 -317 -148q-184 0 -298 119t-114 314v616h223v-608q0 -111 63.5 -179.5t170.5 -68.5q113 0 179.5 70.5t66.5 187.5v598z" glyph-name="ucircumflex" horiz-adv-x="1208" unicode="û"/><glyph d="M397 1196q-59 0 -102 43t-43 102.5t43 102.5t102 43q61 0 103.5 -43t42.5 -102.5t-42.5 -102.5t-103.5 -43zM797 1196q-59 0 -102.5 43t-43.5 102.5t43 102.5t103 43q61 0 103 -43t42 -102.5t-42 -102.5t-103 -43zM838 1024h223v-1024h-197v123q-113 -147 -317 -148 q-184 0 -298 119t-114 314v616h223v-608q0 -111 63.5 -179.5t170.5 -68.5q113 0 179.5 70.5t66.5 187.5v598z" glyph-name="udieresis" horiz-adv-x="1208" unicode="ü"/><glyph d="M379 1155h-14l-66 100v13l387 278h12l101 -153v-13zM1053 1024l12 -16l-475 -1086q-63 -141 -137 -197.5t-185 -56.5q-102 0 -168 41l-8 19l49 139l19 6q41 -27 100 -27q43 0 74 21.5t59 87.5l51 111l-417 942l12 16h221l297 -729l295 729h201z" glyph-name="yacute" horiz-adv-x="1085" unicode="ý"/><glyph d="M705 1049q223 0 368.5 -155t145.5 -382t-144.5 -382t-369.5 -155q-195 0 -334 123v-409h-224v1642h197v-428q146 146 361 146zM674 170q143 0 232 98.5t89 243.5t-89 243.5t-232 98.5q-137 0 -228.5 -90t-91.5 -252t91.5 -252t228.5 -90z" glyph-name="thorn" horiz-adv-x="1294" unicode="þ"/><glyph d="M356 1196q-59 0 -102 43t-43 102.5t43 102.5t102 43q61 0 103.5 -43t42.5 -102.5t-42.5 -102.5t-103.5 -43zM756 1196q-59 0 -102.5 43t-43.5 102.5t43 102.5t103 43q61 0 103 -43t42 -102.5t-42 -102.5t-103 -43zM1053 1024l12 -16l-475 -1086q-63 -141 -137 -197.5 t-185 -56.5q-102 0 -168 41l-8 19l49 139l19 6q41 -27 100 -27q43 0 74 21.5t59 87.5l51 111l-417 942l12 16h221l297 -729l295 729h201z" glyph-name="ydieresis" horiz-adv-x="1085" unicode="ÿ"/><glyph d="M1010 1665v-162h-625v162h625zM760 1331l614 -1313l-10 -18h-227l-119 270h-649l-121 -270h-219l-11 18l619 1313h123zM444 442h500l-248 566z" glyph-name="Amacron" horiz-adv-x="1394" unicode="Ā"/><glyph d="M860 1391v-162h-608v162h608zM539 1049q209 0 331.5 -107.5t122.5 -316.5v-625h-192v117q-141 -141 -340 -142q-180 0 -291 90.5t-111 239.5q0 156 121 251t318 95q133 0 286 -63v67q0 96 -74.5 156.5t-191.5 60.5q-162 0 -289 -102h-16l-82 125v16q76 63 189 100.5 t219 37.5zM502 139q111 0 196.5 63.5t87.5 159.5l-2 13v51q-139 70 -264 70q-111 0 -177.5 -51.5t-66.5 -135.5q0 -76 62 -123t164 -47z" glyph-name="amacron" horiz-adv-x="1128" unicode="ā"/><glyph d="M698 1460q-127 0 -216 84t-103 217h164q10 -72 51 -112.5t104.5 -40.5t104.5 41t51 112h164q-14 -133 -103.5 -217t-216.5 -84zM760 1331l614 -1313l-10 -18h-227l-119 270h-649l-121 -270h-219l-11 18l619 1313h123zM444 442h500l-248 566z" glyph-name="Abreve" horiz-adv-x="1394" unicode="Ă"/><glyph d="M555 1184q-133 0 -223 84t-107 217h164q12 -70 57.5 -112t108.5 -42t108.5 42t57.5 112h164q-16 -133 -106.5 -217t-223.5 -84zM539 1049q209 0 331.5 -107.5t122.5 -316.5v-625h-192v117q-141 -141 -340 -142q-180 0 -291 90.5t-111 239.5q0 156 121 251t318 95 q133 0 286 -63v67q0 96 -74.5 156.5t-191.5 60.5q-162 0 -289 -102h-16l-82 125v16q76 63 189 100.5t219 37.5zM502 139q111 0 196.5 63.5t87.5 159.5l-2 13v51q-139 70 -264 70q-111 0 -177.5 -51.5t-66.5 -135.5q0 -76 62 -123t164 -47z" glyph-name="abreve" horiz-adv-x="1128" unicode="ă"/><glyph d="M1489 -287l43 -94l-2 -16q-86 -49 -182 -49q-115 0 -186.5 62t-71.5 163q0 121 100 221h-53l-119 270h-649l-121 -270h-219l-11 18l619 1313h123l614 -1313l-10 -18l-14 -12q-14 -14 -18.5 -19.5t-16.5 -20t-18.5 -22.5t-15.5 -24.5t-13 -28.5t-8.5 -29.5t-4.5 -33.5 q0 -51 35 -84t90 -33q37 0 90 24zM444 442h500l-248 566z" glyph-name="Aogonek" horiz-adv-x="1394" unicode="Ą"/><glyph d="M1118 -287l43 -94l-2 -16q-86 -49 -182 -49q-115 0 -186.5 62t-71.5 163q0 121 100 221h-18v117q-141 -141 -340 -142q-180 0 -291 90.5t-111 239.5q0 156 121 251t318 95q133 0 286 -63v67q0 96 -74.5 156.5t-191.5 60.5q-162 0 -289 -102h-16l-82 125v16 q76 63 188.5 100.5t219.5 37.5q209 0 331.5 -107.5t122.5 -316.5v-625l-14 -12q-14 -14 -18.5 -19.5t-16.5 -20t-18 -22.5t-15.5 -24.5t-13.5 -28.5t-8 -29.5t-4 -33.5q0 -51 34.5 -84t90.5 -33q37 0 90 24zM502 139q111 0 196.5 63.5t87.5 159.5l-2 13v51q-139 70 -264 70 q-111 0 -177.5 -51.5t-66.5 -135.5q0 -76 62 -123t164 -47z" glyph-name="aogonek" horiz-adv-x="1128" unicode="ą"/><glyph d="M963 1833h16l94 -152v-16l-438 -207h-17l-59 96v17zM788 -25q-297 0 -499.5 198t-202.5 493t204 492.5t501 197.5q168 0 311 -69.5t241 -192.5v-19l-143 -114h-16q-147 190 -391 190q-203 0 -340.5 -137t-137.5 -348t137.5 -348.5t340.5 -137.5q244 0 391 191h16 l143 -115v-18q-96 -123 -239.5 -193t-315.5 -70z" glyph-name="Cacute" horiz-adv-x="1396" unicode="Ć"/><glyph d="M739 1546h13l100 -153v-13l-420 -225h-14l-66 100v13zM627 -25q-238 0 -394.5 154t-156.5 383t156.5 383t394.5 154q264 0 417 -181v-16l-126 -113h-19q-111 115 -268 115q-145 0 -238.5 -97.5t-93.5 -246.5q0 -147 93 -243.5t245 -96.5q164 0 262 115h19l126 -113v-16 q-153 -181 -417 -181z" glyph-name="cacute" horiz-adv-x="1095" unicode="ć"/><glyph d="M793 1481q-59 0 -105.5 46t-46.5 105q0 63 46 108.5t106 45.5q63 0 108 -45t45 -109q0 -61 -46 -106t-107 -45zM788 -25q-297 0 -499.5 198t-202.5 493t204 492.5t501 197.5q168 0 311 -69.5t241 -192.5v-19l-143 -114h-16q-147 190 -391 190q-203 0 -340.5 -137 t-137.5 -348t137.5 -348.5t340.5 -137.5q244 0 391 191h16l143 -115v-18q-96 -123 -239.5 -193t-315.5 -70z" glyph-name="Cdotaccent" horiz-adv-x="1396" unicode="Ċ"/><glyph d="M608.5 1196q-63.5 0 -108.5 46t-45 109.5t45 108.5t108.5 45t109.5 -45t46 -108q0 -66 -46 -111t-109.5 -45zM627 -25q-238 0 -394.5 154t-156.5 383t156.5 383t394.5 154q264 0 417 -181v-16l-126 -113h-19q-111 115 -268 115q-145 0 -238.5 -97.5t-93.5 -246.5 q0 -147 93 -243.5t245 -96.5q164 0 262 115h19l126 -113v-16q-153 -181 -417 -181z" glyph-name="cdotaccent" horiz-adv-x="1095" unicode="ċ"/><glyph d="M803 1477h-21l-352 202v17l64 102h16l285 -139l282 139h15l65 -102v-17zM793 1151q-203 0 -340.5 -137t-137.5 -348t137.5 -348.5t340.5 -137.5q244 0 391 191h16l143 -115v-18q-96 -123 -239 -193t-316 -70q-297 0 -499.5 198t-202.5 493t204 492.5t501 197.5 q168 0 311 -69.5t241 -192.5v-19l-143 -114h-16q-147 190 -391 190z" glyph-name="Ccaron" horiz-adv-x="1396" unicode="Č"/><glyph d="M625 1155h-31l-330 205v12l74 105h12l260 -140l258 140h13l73 -105v-12zM631 854q-145 0 -238.5 -97.5t-93.5 -246.5q0 -147 93 -243.5t245 -96.5q164 0 262 115h19l126 -113v-16q-154 -180 -417 -181q-238 0 -394.5 154t-156.5 383t156.5 383t394.5 154q264 0 417 -181 v-16l-126 -113h-19q-110 115 -268 115z" glyph-name="ccaron" horiz-adv-x="1095" unicode="č"/><glyph d="M670 1477h-21l-352 202v17l63 102h17l285 -139l282 139h14l66 -102v-17zM717 1331q315 0 505.5 -182t190.5 -481q0 -301 -190.5 -484.5t-505.5 -183.5h-543v1331h543zM713 193q213 0 341 129t128 344t-128 344t-341 129h-312v-946h312z" glyph-name="Dcaron" horiz-adv-x="1499" unicode="Ď"/><glyph d="M1522 1452l12 -14l-125 -385l-14 -15h-115l-10 15l53 385l14 14h185zM924 1372l206 25l17 -13v-1384h-201v131q-141 -156 -354 -156q-225 0 -370.5 155t-145.5 382t145.5 382t370.5 155q190 0 332 -121v444zM623 170q137 0 228 90t91 252q0 160 -92 251t-227 91 q-143 0 -233.5 -98.5t-90.5 -243.5t90.5 -243.5t233.5 -98.5z" glyph-name="dcaron" horiz-adv-x="1357" unicode="ď"/><glyph d="M735 1331q315 0 506 -182t191 -481q0 -301 -190.5 -484.5t-506.5 -183.5h-542v578h-140v180h140v573h542zM731 193q213 0 341 129t128 344t-128 344t-341 129h-311v-381h356v-180h-356v-385h311z" glyph-name="Dcroat" horiz-adv-x="1517" unicode="Đ"/><glyph d="M1296 1260v-138h-147v-1122h-201v131q-141 -156 -354 -156q-225 0 -370.5 155t-145.5 382q0 229 145.5 383t370.5 154q190 0 332 -121v194h-277v138h277v135l207 20l16 -12v-143h147zM625 170q137 0 227 90t90 252t-90 252t-227 90q-145 0 -234.5 -98.5t-89.5 -243.5 t89.5 -243.5t234.5 -98.5z" glyph-name="dcroat" horiz-adv-x="1296" unicode="đ"/><glyph d="M326 1665h624v-162h-624v162zM1098 1139h-697v-377h549v-184h-549v-385h699v-193h-926v1331h924v-192z" glyph-name="Emacron" horiz-adv-x="1189" unicode="Ē"/><glyph d="M905 1391v-162h-608v162h608zM1116 457h-817q12 -143 107.5 -223t228.5 -80q90 0 177 34.5t142 100.5h19l112 -103v-16q-76 -96 -201.5 -145.5t-254.5 -49.5q-231 0 -391 146.5t-160 388.5q0 231 149.5 385t378.5 154q219 0 365 -142q152 -147 151 -379q0 -44 -6 -71z M602 874q-121 0 -202 -71.5t-99 -192.5h600q-16 113 -82 178q-82 86 -217 86z" glyph-name="emacron" horiz-adv-x="1191" unicode="ē"/><glyph d="M635 1481q-59 0 -105.5 46t-46.5 105q0 63 45 108.5t107 45.5q63 0 108 -45t45 -109q0 -61 -46 -106t-107 -45zM1098 1139h-697v-377h549v-184h-549v-385h699v-193h-926v1331h924v-192z" glyph-name="Edotaccent" horiz-adv-x="1189" unicode="Ė"/><glyph d="M600.5 1196q-63.5 0 -109 46t-45.5 109.5t45.5 108.5t109 45t109.5 -45t46 -108q0 -66 -46 -111t-109.5 -45zM1116 457h-817q12 -143 107.5 -223t228.5 -80q90 0 177 34.5t142 100.5h19l112 -103v-16q-76 -96 -201.5 -145.5t-254.5 -49.5q-231 0 -391 146.5t-160 388.5 q0 231 149.5 385t378.5 154q219 0 365 -142q152 -147 151 -379q0 -44 -6 -71zM602 874q-121 0 -202 -71.5t-99 -192.5h600q-16 113 -82 178q-82 86 -217 86z" glyph-name="edotaccent" horiz-adv-x="1191" unicode="ė"/><glyph d="M1225 -287l43 -94l-2 -16q-86 -49 -183 -49q-115 0 -186.5 62t-71.5 163q0 121 101 221h-752v1331h924v-192h-697v-377h549v-184h-549v-385h699v-193l-15 -12q-14 -14 -18 -19.5t-16.5 -20t-18.5 -22.5t-15 -24.5t-13.5 -28.5t-8.5 -29.5t-4 -33.5q0 -51 35 -84t90 -33 q37 0 90 24z" glyph-name="Eogonek" horiz-adv-x="1189" unicode="Ę"/><glyph d="M1116 457h-817q12 -143 107.5 -223t228.5 -80q90 0 177 34.5t142 100.5h19l112 -103v-16q-86 -111 -245 -162q-104 -104 -105 -186q0 -51 35 -84t90 -33q37 0 90 25l19 -4l43 -95l-2 -16q-86 -49 -183 -49q-115 0 -186.5 62.5t-71.5 162.5q0 98 70 184h-10 q-231 0 -391 146.5t-160 388.5q0 231 149.5 385t378.5 154q219 0 365 -142q152 -147 151 -379q0 -44 -6 -71zM602 874q-121 0 -202 -71.5t-99 -192.5h600q-16 113 -82 178q-82 86 -217 86z" glyph-name="eogonek" horiz-adv-x="1191" unicode="ę"/><glyph d="M647 1477h-20l-353 202v17l64 102h16l285 -139l283 139h14l65 -102v-17zM401 193h699v-193h-926v1331h924v-192h-697v-377h549v-184h-549v-385z" glyph-name="Ecaron" horiz-adv-x="1189" unicode="Ě"/><glyph d="M616 1155h-30l-330 205v12l74 105h12l260 -140l258 140h12l74 -105v-12zM1116 457h-817q12 -143 107.5 -223t228.5 -80q90 0 177 34.5t142 100.5h19l112 -103v-16q-76 -96 -201.5 -145.5t-254.5 -49.5q-231 0 -391 146.5t-160 388.5q0 231 149.5 385t378.5 154 q219 0 365 -142q152 -147 151 -379q0 -44 -6 -71zM602 874q-121 0 -202 -71.5t-99 -192.5h600q-16 113 -82 178q-82 86 -217 86z" glyph-name="ecaron" horiz-adv-x="1191" unicode="ě"/><glyph d="M784 1462q-127 0 -216 84t-103 217h164q10 -72 51 -112.5t104.5 -40.5t104.5 41t51 112h164q-14 -133 -103.5 -217t-216.5 -84zM1450 725q4 -27 4 -78q0 -283 -190 -473q-195 -199 -488 -199q-297 0 -493.5 196t-196.5 495q0 297 200.5 493.5t491.5 196.5 q162 0 306.5 -68.5t238.5 -189.5v-17l-143 -120h-19q-68 88 -167 139t-212 51q-197 0 -332 -137t-135 -348q0 -213 132.5 -349.5t332.5 -136.5q190 0 324 129q106 106 117 252h-441v178h652z" glyph-name="Gbreve" horiz-adv-x="1517" unicode="Ğ"/><glyph d="M620.5 1184q-133.5 0 -223.5 84t-106 217h164q12 -70 57 -112t108.5 -42t108.5 42t57 112h164q-16 -133 -106 -217t-223.5 -84zM922 1024h192v-866q0 -242 -149.5 -366t-378.5 -124q-154 0 -279 56.5t-203 154.5v19l111 114h16q129 -168 355 -168q139 0 228 73t89 212v78 q-135 -123 -330 -123q-215 0 -355 138t-140 345q0 205 141 343.5t356 138.5q209 0 347 -138v113zM608 262q135 0 221 85t86 218t-86 219t-223 86q-135 0 -220 -85t-85 -218q0 -135 85 -220t222 -85z" glyph-name="gbreve" horiz-adv-x="1261" unicode="ğ"/><glyph d="M780 1483q-59 0 -105 46t-46 105q0 61 46 107.5t105 46.5q63 0 108.5 -45t45.5 -109q0 -61 -46.5 -106t-107.5 -45zM1450 725q4 -27 4 -78q0 -283 -190 -473q-195 -199 -488 -199q-297 0 -493.5 196t-196.5 495q0 297 200.5 493.5t491.5 196.5q162 0 306.5 -68.5 t238.5 -189.5v-17l-143 -120h-19q-68 88 -167 139t-212 51q-197 0 -332 -137t-135 -348q0 -213 132.5 -349.5t332.5 -136.5q190 0 324 129q106 106 117 252h-441v178h652z" glyph-name="Gdotaccent" horiz-adv-x="1517" unicode="Ġ"/><glyph d="M618 1196q-63 0 -108 46t-45 109.5t45 108.5t108.5 45t109.5 -45t46 -108q0 -66 -45 -111t-111 -45zM922 1024h192v-866q0 -242 -149.5 -366t-378.5 -124q-154 0 -279 56.5t-203 154.5v19l111 114h16q129 -168 355 -168q139 0 228 73t89 212v78q-135 -123 -330 -123 q-215 0 -355 138t-140 345q0 205 141 343.5t356 138.5q209 0 347 -138v113zM608 262q135 0 221 85t86 218t-86 219t-223 86q-135 0 -220 -85t-85 -218q0 -135 85 -220t222 -85z" glyph-name="gdotaccent" horiz-adv-x="1261" unicode="ġ"/><glyph d="M1450 725q4 -27 4 -78q0 -283 -190 -473q-195 -199 -488 -199q-297 0 -493.5 196t-196.5 495q0 297 200.5 493.5t491.5 196.5q162 0 306.5 -68.5t238.5 -189.5v-17l-143 -120h-19q-68 88 -167 139t-212 51q-197 0 -332 -137t-135 -348q0 -213 132.5 -349.5t332.5 -136.5 q190 0 324 129q106 106 117 252h-441v178h652zM672 -121l14 15h178l13 -15l-113 -358l-14 -15h-115l-12 15z" glyph-name="Gcommaaccent" horiz-adv-x="1517" unicode="Ģ"/><glyph d="M711 1155h-179l-12 14l113 359l14 14h115l12 -14l-49 -359zM922 1024h192v-866q0 -242 -149.5 -366t-378.5 -124q-154 0 -279 56.5t-203 154.5v19l111 114h16q129 -168 355 -168q139 0 228 73t89 212v78q-135 -123 -330 -123q-215 0 -355 138t-140 345q0 205 141 343.5 t356 138.5q209 0 347 -138v113zM608 262q135 0 221 85t86 218t-86 219t-223 86q-135 0 -220 -85t-85 -218q0 -135 85 -220t222 -85z" glyph-name="gcommaaccent" horiz-adv-x="1261" unicode="ģ"/><glyph d="M1419 1116v-149h-108v-969h-228v573h-673v-573h-228v969h-110v149h110v213h228v-213h673v213h228v-213h108zM1083 764v203h-673v-203h673z" glyph-name="Hbar" horiz-adv-x="1490" unicode="Ħ"/><glyph d="M675.5 1049q190.5 0 306.5 -120t116 -313v-616h-224v600q0 117 -66.5 186.5t-181 69.5t-186 -69.5t-71.5 -186.5v-600h-222v1118h-149v139h149v134l205 24l17 -12v-146h284v-139h-284v-196q116 127 306.5 127z" glyph-name="hbar" horiz-adv-x="1232" unicode="ħ"/><glyph d="M436 1505q-57 0 -156.5 39t-148.5 39q-41 0 -73.5 -20.5t-47.5 -55.5h-8l-12 11v157q41 84 149 84q55 0 158.5 -39t144.5 -39q92 0 121 76h8l15 -10v-158q-48 -84 -150 -84zM174 1331h227v-1331h-227v1331z" glyph-name="Itilde" horiz-adv-x="575" unicode="Ĩ"/><glyph d="M401 1217q-51 0 -144 37.5t-140 37.5q-102 0 -133 -73h-13l-10 10v145q49 84 158 84q53 0 149.5 -37t132.5 -37q104 0 138 72h8l12 -8v-148q-49 -83 -158 -83zM152 0v1024h221v-1024h-221z" glyph-name="itilde" horiz-adv-x="524" unicode="ĩ"/><glyph d="M8 1665h561v-162h-561v162zM174 1331h227v-1331h-227v1331z" glyph-name="Imacron" horiz-adv-x="575" unicode="Ī"/><glyph d="M-20 1391h565v-162h-565v162zM152 0v1024h221v-1024h-221z" glyph-name="imacron" horiz-adv-x="524" unicode="ī"/><glyph d="M526 -287l43 -94l-2 -16q-86 -49 -182 -49q-115 0 -186.5 62t-71.5 163q0 121 100 221h-53v1331h227v-1331l-14 -12q-14 -14 -18 -19.5t-16.5 -20t-18.5 -22.5t-15.5 -24.5t-13.5 -28.5t-8 -29.5t-4 -33.5q0 -51 34.5 -84t90.5 -33q37 0 90 24z" glyph-name="Iogonek" horiz-adv-x="575" unicode="Į"/><glyph d="M262 1196q-63 0 -108 46t-45 109.5t45 108.5t108.5 45t109.5 -45t46 -108q0 -66 -45 -111t-111 -45zM498 -287l43 -94l-2 -16q-86 -49 -183 -49q-115 0 -186.5 62t-71.5 163q0 121 101 221h-47v1024h221v-1024l-15 -12q-14 -14 -18 -19.5t-16.5 -20t-18.5 -22.5 t-15 -24.5t-13.5 -28.5t-8.5 -29.5t-4 -33.5q0 -51 35 -84t90 -33q37 0 90 24z" glyph-name="iogonek" horiz-adv-x="524" unicode="į"/><glyph d="M287 1481q-59 0 -105.5 46t-46.5 105q0 63 45 108.5t107 45.5q63 0 108 -45t45 -109q0 -61 -46 -106t-107 -45zM174 1331h227v-1331h-227v1331z" glyph-name="Idotaccent" horiz-adv-x="575" unicode="İ"/><glyph d="M152 0v1024h221v-1024h-221z" glyph-name="dotlessi" horiz-adv-x="524" unicode="ı"/><glyph d="M174 1331h227v-1331h-227v1331zM1124 1331h228v-870q0 -242 -121 -364t-322 -122q-270 0 -417 205v19l135 127h18q98 -145 252 -146q100 0 163.5 67.5t63.5 188.5v895z" glyph-name="IJ" horiz-adv-x="1509" unicode="Ĳ"/><glyph d="M262.5 1196q-63.5 0 -108.5 46t-45 109.5t45 108.5t108.5 45t108.5 -45t45 -108q0 -66 -45 -111t-108.5 -45zM776.5 1196q-63.5 0 -108.5 46t-45 109.5t45 108.5t108.5 45t108.5 -45t45 -108q0 -66 -45 -111t-108.5 -45zM152 0v1024h221v-1024h-221zM602 -340l-82 162v16 q84 45 115 99.5t31 168.5v918h223v-920q0 -184 -58.5 -278t-212.5 -166h-16z" glyph-name="ij" horiz-adv-x="1036" unicode="ĳ"/><glyph d="M694 727l570 -709l-11 -18h-247l-476 588l-129 -137v-451h-227v1331h227v-614l586 614h254l10 -18zM608 -106h178l13 -15l-113 -358l-14 -15h-115l-12 15l49 358z" glyph-name="Kcommaaccent" horiz-adv-x="1271" unicode="Ķ"/><glyph d="M649 565l432 -549l-8 -16h-246l-342 444l-114 -120v-324h-224v1372l207 25l17 -13v-841l446 481h242l10 -16zM516 -106h178l13 -15l-113 -358l-14 -15h-115l-12 15l49 358z" glyph-name="kcommaaccent" horiz-adv-x="1089" unicode="ķ"/><glyph d="M649 565l432 -549l-8 -16h-246l-342 444l-114 -120v-324h-224v1024h224v-481l446 481h242l10 -16z" glyph-name="kgreenlandic" horiz-adv-x="1089" unicode="ĸ"/><glyph d="M434 1833h17l94 -152v-16l-439 -207h-16l-59 96v17zM1016 193v-193h-842v1331h227v-1138h615z" glyph-name="Lacute" horiz-adv-x="1042" unicode="Ĺ"/><glyph d="M397 1831h17l94 -152v-16l-438 -207h-17l-59 96v17zM152 0v1372l204 25l17 -13v-1384h-221z" glyph-name="lacute" horiz-adv-x="524" unicode="ĺ"/><glyph d="M1016 193v-193h-842v1331h227v-1138h615zM492 -121l14 15h178l12 -15l-112 -358l-15 -15h-114l-13 15z" glyph-name="Lcommaaccent" horiz-adv-x="1042" unicode="Ļ"/><glyph d="M152 0v1372l204 25l17 -13v-1384h-221zM160 -121l14 15h178l13 -15l-113 -358l-14 -15h-115l-12 15z" glyph-name="lcommaaccent" horiz-adv-x="524" unicode="ļ"/><glyph d="M618 1440l17 12h182l12 -12l-122 -387l-17 -13h-112l-13 13zM1016 193v-193h-842v1331h227v-1138h615z" glyph-name="Lcaron" horiz-adv-x="1046" unicode="Ľ"/><glyph d="M547 1438l16 14h185l10 -14l-123 -385l-17 -15h-112l-12 15zM152 0v1372l204 25l17 -13v-1384h-221z" glyph-name="lcaron" horiz-adv-x="581" unicode="ľ"/><glyph d="M1016 193v-193h-842v1331h227v-1138h615zM790.5 571q-59.5 0 -100.5 42t-41 101.5t42 100.5t100 41q59 0 101 -41t42 -100.5t-42 -101.5t-101.5 -42z" glyph-name="Ldot" horiz-adv-x="1062" unicode="Ŀ"/><glyph d="M152 0v1372l204 25l17 -13v-1384h-221zM590 565q-59 0 -102.5 43t-43.5 102.5t43 102.5t103 43q61 0 103 -43t42 -102.5t-42 -102.5t-103 -43z" glyph-name="ldot" horiz-adv-x="655" unicode="ŀ"/><glyph d="M477 193h615v-193h-842v477l-178 -84l-17 10v179l195 92v657h227v-549l266 127l17 -10v-178l-283 -135v-393z" glyph-name="Lslash" horiz-adv-x="1120" unicode="Ł"/><glyph d="M647 934v-160l-184 -96v-678h-223v563l-166 -86l-19 8v160l185 96v631l206 25l17 -13v-528l168 88z" glyph-name="lslash" horiz-adv-x="702" unicode="ł"/><glyph d="M578 1458h-17l-59 96v17l403 262h17l94 -152v-16zM1077 1331h223v-1345h-126l-777 936v-922h-223v1331h127l776 -934v934z" glyph-name="Nacute" unicode="Ń"/><glyph d="M477 1155h-14l-66 100v13l387 278h13l100 -153v-13zM678 1049q193 0 308.5 -120t115.5 -313v-616h-225v598q0 119 -67 188.5t-181 69.5q-113 0 -184.5 -70.5t-71.5 -187.5v-598h-226v1024h197v-133q121 158 334 158z" glyph-name="nacute" horiz-adv-x="1234" unicode="ń"/><glyph d="M1077 1331h223v-1345h-126l-777 936v-922h-223v1331h127l776 -934v934zM639 -106h178l12 -15l-112 -358l-15 -15h-114l-13 15l50 358z" glyph-name="Ncommaaccent" unicode="Ņ"/><glyph d="M678 1049q193 0 308.5 -120t115.5 -313v-616h-225v598q0 119 -67 188.5t-181 69.5q-113 0 -184.5 -70.5t-71.5 -187.5v-598h-226v1024h197v-133q121 158 334 158zM532 -106h179l12 -15l-113 -358l-14 -15h-115l-12 15l49 358z" glyph-name="ncommaaccent" horiz-adv-x="1234" unicode="ņ"/><glyph d="M745 1477h-20l-352 202v17l63 102h17l284 -139l283 139h14l66 -102v-17zM1077 1331h223v-1345h-126l-777 936v-922h-223v1331h127l776 -934v934z" glyph-name="Ncaron" unicode="Ň"/><glyph d="M670 1155h-31l-330 205v12l74 105h12l260 -140l258 140h13l73 -105v-12zM678 1049q193 0 308.5 -120t115.5 -313v-616h-225v598q0 119 -67 188.5t-181 69.5q-113 0 -184.5 -70.5t-71.5 -187.5v-598h-226v1024h197v-133q121 158 334 158z" glyph-name="ncaron" horiz-adv-x="1234" unicode="ň"/><glyph d="M233 1167l-16 -12h-115l-12 12l51 361l17 12h184l10 -12zM682 1049q193 0 308.5 -120t115.5 -313v-616h-225v598q0 119 -66.5 188.5t-181.5 69.5q-113 0 -184.5 -70.5t-71.5 -187.5v-598h-225v1024h196v-133q121 158 334 158z" glyph-name="napostrophe" horiz-adv-x="1239" unicode="ŉ"/><glyph d="M1077 1331h223v-1397q0 -178 -118.5 -286.5t-290.5 -108.5q-106 0 -205.5 41t-153.5 119v18l132 119h16q33 -49 91 -77.5t120 -28.5q92 0 147.5 60t55.5 155v139l-697 840v-924h-223v1331h127l776 -948v948z" glyph-name="Eng" unicode="Ŋ"/><glyph d="M678 1049q190 0 307 -120t117 -313v-473q0 -180 -67.5 -288.5t-215.5 -173.5h-16l-72 153v16q82 43 114 104.5t32 180.5v463q0 119 -67 188.5t-181 69.5q-113 0 -184.5 -70.5t-71.5 -187.5v-598h-226v1024h197v-133q121 158 334 158z" glyph-name="eng" horiz-adv-x="1234" unicode="ŋ"/><glyph d="M487 1665h625v-162h-625v162zM799 -25q-305 0 -510 198t-205 493t205 492.5t510 197.5t509.5 -197.5t204.5 -492.5t-204.5 -493t-509.5 -198zM799 180q207 0 346 137.5t139 348.5t-139 348t-346 137t-345.5 -137t-138.5 -348t138.5 -348.5t345.5 -137.5z" glyph-name="Omacron" horiz-adv-x="1597" unicode="Ō"/><glyph d="M326 1391h608v-162h-608v162zM629 -25q-238 0 -395.5 154t-157.5 383t157.5 383t395.5 154q240 0 397.5 -154t157.5 -383t-157.5 -383t-397.5 -154zM629 170q145 0 238.5 97.5t93.5 244.5t-93.5 244.5t-238.5 97.5q-143 0 -236.5 -97.5t-93.5 -244.5t93.5 -244.5 t236.5 -97.5z" glyph-name="omacron" horiz-adv-x="1259" unicode="ō"/><glyph d="M698 1794h199l10 -16l-239 -322h-146l-8 14zM1044 1794h197l10 -16l-239 -322h-146l-8 14zM799 -25q-305 0 -510 198t-205 493t205 492.5t510 197.5t509.5 -197.5t204.5 -492.5t-204.5 -493t-509.5 -198zM799 180q207 0 346 137.5t139 348.5t-139 348t-346 137 t-345.5 -137t-138.5 -348t138.5 -348.5t345.5 -137.5z" glyph-name="Ohungarumlaut" horiz-adv-x="1597" unicode="Ő"/><glyph d="M518 1520l19 14h176l10 -14l-205 -353l-16 -14h-109l-12 14zM829 1520l19 14h176l10 -14l-205 -353l-16 -14h-108l-13 14zM629 -25q-238 0 -395.5 154t-157.5 383t157.5 383t395.5 154q240 0 397.5 -154t157.5 -383t-157.5 -383t-397.5 -154zM629 170q145 0 238.5 97.5 t93.5 244.5t-93.5 244.5t-238.5 97.5q-143 0 -236.5 -97.5t-93.5 -244.5t93.5 -244.5t236.5 -97.5z" glyph-name="ohungarumlaut" horiz-adv-x="1259" unicode="ő"/><glyph d="M1511 193h699v-193h-926v176q-201 -201 -491 -201q-301 0 -505 198t-204 493t204 492.5t505 197.5q289 0 491 -203v178h924v-192h-697v-377h549v-184h-549v-385zM799 180q207 0 346 137.5t139 348.5t-139 348t-346 137t-345.5 -137t-138.5 -348t138.5 -348.5 t345.5 -137.5z" glyph-name="OE" horiz-adv-x="2299" unicode="Œ"/><glyph d="M2005 528q0 -35 -4 -71h-819q12 -143 107 -223t229 -80q90 0 178 34.5t141 100.5h18l113 -103v-16q-76 -96 -202 -145.5t-255 -49.5q-135 0 -250.5 52.5t-191.5 150.5q-160 -203 -440 -203q-238 0 -395.5 154t-157.5 383t157.5 383t395.5 154q281 0 440 -203 q53 72 135 121q127 82 285 82q244 0 393 -170q123 -146 123 -351zM1184 598h604q-6 111 -74 184q-82 92 -229 92q-115 0 -191 -61q-98 -78 -110 -215zM629 170q145 0 238.5 97.5t93.5 244.5t-93.5 244.5t-238.5 97.5q-143 0 -236.5 -97.5t-93.5 -244.5t93.5 -244.5 t236.5 -97.5z" glyph-name="oe" horiz-adv-x="2074" unicode="œ"/><glyph d="M467 1458h-16l-60 96v17l404 262h16l94 -152v-16zM915 561l291 -543l-10 -18h-223l-285 535h-287v-535h-227v1331h535q238 0 363.5 -106.5t125.5 -296.5q0 -137 -74 -231.5t-209 -135.5zM401 1139v-437h328q109 0 173.5 60.5t64.5 159t-64.5 158t-173.5 59.5h-328z" glyph-name="Racute" horiz-adv-x="1296" unicode="Ŕ"/><glyph d="M289 1155h-15l-65 100v13l387 278h12l101 -153v-13zM774 1016l10 -17l-55 -163l-18 -9q-39 25 -113 25q-102 0 -164.5 -80t-62.5 -205v-567h-224v1024h197v-135q100 160 277 160q85 0 153 -33z" glyph-name="racute" horiz-adv-x="782" unicode="ŕ"/><glyph d="M915 561l291 -543l-10 -18h-223l-285 535h-287v-535h-227v1331h535q238 0 363.5 -106.5t125.5 -296.5q0 -137 -74 -231.5t-209 -135.5zM401 1139v-437h328q109 0 173.5 60.5t64.5 159t-64.5 158t-173.5 59.5h-328zM565 -106h178l13 -15l-113 -358l-14 -15h-115l-12 15 l49 358z" glyph-name="Rcommaaccent" horiz-adv-x="1296" unicode="Ŗ"/><glyph d="M774 1016l10 -17l-55 -163l-18 -9q-39 25 -113 25q-102 0 -164.5 -80t-62.5 -205v-567h-224v1024h197v-135q100 160 277 160q85 0 153 -33zM170 -106h178l12 -15l-112 -358l-15 -15h-114l-13 15l50 358z" glyph-name="rcommaaccent" horiz-adv-x="782" unicode="ŗ"/><glyph d="M635 1477h-21l-352 202v17l64 102h16l285 -139l282 139h15l65 -102v-17zM915 561l291 -543l-10 -18h-223l-285 535h-287v-535h-227v1331h535q238 0 363.5 -106.5t125.5 -296.5q0 -137 -74 -231.5t-209 -135.5zM401 1139v-437h328q109 0 173.5 60.5t64.5 159t-64.5 158 t-173.5 59.5h-328z" glyph-name="Rcaron" horiz-adv-x="1296" unicode="Ř"/><glyph d="M737 1477l74 -105v-12l-330 -205h-30l-330 205v12l74 105h12l260 -140l258 140h12zM621 1049q86 0 153 -33l10 -17l-55 -163l-18 -9q-39 25 -113 25q-102 0 -164.5 -80t-62.5 -205v-567h-224v1024h197v-135q101 160 277 160z" glyph-name="rcaron" horiz-adv-x="782" unicode="ř"/><glyph d="M764 1833h16l94 -152v-16l-438 -207h-16l-60 96v17zM600 -25q-166 0 -310.5 68t-232.5 186v19l123 127h19q72 -92 178 -147.5t209 -55.5q123 0 195.5 51t72.5 133q0 39 -15.5 70t-36 50.5t-61.5 39t-72.5 29.5t-89 29.5t-94.5 31.5q-74 27 -125 51.5t-111.5 68.5 t-92 109.5t-31.5 147.5q0 164 129 268.5t336 104.5q152 0 273.5 -55.5t193.5 -147.5v-18l-121 -127h-16q-135 158 -326 157q-104 0 -171 -46t-67 -122q0 -53 37 -93t78 -58.5t121 -46.5q12 -4 74.5 -24.5t80 -28t71.5 -29t74.5 -36.5t60.5 -41t57.5 -52.5t39 -61t29.5 -75.5 t8 -91q0 -176 -137 -280.5t-350 -104.5z" glyph-name="Sacute" horiz-adv-x="1169" unicode="Ś"/><glyph d="M608 1546h13l100 -153v-13l-420 -225h-14l-66 100v13zM471 -27q-131 0 -241.5 50.5t-178.5 138.5v16l113 113h18q43 -59 122 -98t163 -39q78 0 127 33.5t49 86.5q0 29 -13.5 52.5t-26.5 38t-49 33t-53.5 25.5t-66.5 26q-76 29 -119 48t-97 55t-79.5 87t-25.5 117 q0 133 101 214t271 81q113 0 214.5 -47.5t154.5 -122.5v-19l-113 -108h-16q-98 121 -244 120q-68 0 -109.5 -29.5t-41.5 -76.5t42 -75.5t142 -69.5l21 -9q84 -35 128 -57t97 -62t76.5 -94.5t23.5 -128.5q0 -133 -107.5 -216t-281.5 -83z" glyph-name="sacute" horiz-adv-x="940" unicode="ś"/><glyph d="M1087 360q0 -160 -113.5 -262t-297.5 -118l-21 -68q117 0 179.5 -52.5t62.5 -144.5q0 -102 -77 -164.5t-202 -62.5q-152 0 -260 82v16l60 90h18q76 -51 162 -51q127 0 127 88q0 66 -73.5 86.5t-162.5 -4.5l-36 23l53 164q-291 37 -449 247v19l123 127h19 q72 -92 178 -147.5t209 -55.5q123 0 195.5 51t72.5 133q0 39 -15.5 70t-36 50.5t-61.5 39t-72.5 29.5t-89 29.5t-94.5 31.5q-74 27 -125 51.5t-111.5 68.5t-92 109.5t-31.5 147.5q0 164 129 268.5t336 104.5q152 0 273.5 -55.5t193.5 -147.5v-18l-121 -127h-16 q-135 158 -326 157q-104 0 -171 -46t-67 -122q0 -53 37 -93t78 -58.5t121 -46.5q12 -4 74.5 -24.5t80 -28t71.5 -29t74.5 -36.5t60.5 -41t57.5 -52.5t39 -61t29.5 -76t8 -90.5z" glyph-name="Scedilla" horiz-adv-x="1169" unicode="Ş"/><glyph d="M860 272q0 -117 -84 -196.5t-225 -98.5l-21 -65q117 0 179.5 -52.5t62.5 -144.5q0 -102 -77 -164.5t-201 -62.5q-152 0 -261 82v16l60 90h18q76 -51 162 -51q127 0 127 88q0 66 -73.5 86.5t-161.5 -4.5l-37 23l51 162q-213 33 -328 182v16l113 113h18q43 -59 122 -98 t163 -39q78 0 127 33.5t49 86.5q0 29 -13.5 52.5t-26.5 38t-49 33t-53.5 25.5t-66.5 26q-76 29 -119 48t-97 55t-79.5 87t-25.5 117q0 133 101 214t271 81q113 0 214.5 -47.5t154.5 -122.5v-19l-113 -108h-16q-98 121 -244 120q-68 0 -109.5 -29.5t-41.5 -76.5t42 -75.5 t142 -69.5l21 -9q84 -35 128 -57t97 -62t76.5 -94.5t23.5 -128.5z" glyph-name="scedilla" horiz-adv-x="940" unicode="ş"/><glyph d="M606 1477h-20l-353 202v17l64 102h16l285 -139l283 139h14l66 -102v-17zM592 799q12 -4 74.5 -24.5t80 -28t71.5 -29t74.5 -36.5t60.5 -41t57.5 -52.5t39 -61t29.5 -75.5t8 -91q0 -176 -137 -280.5t-350 -104.5q-166 0 -310.5 68t-232.5 186v19l123 127h19 q72 -92 178 -147.5t209 -55.5q123 0 195.5 51t72.5 133q0 39 -15.5 70t-36 50.5t-61.5 39t-72.5 29.5t-89 29.5t-94.5 31.5q-74 27 -125 51.5t-111.5 68.5t-92 109.5t-31.5 147.5q0 164 129 268.5t336 104.5q152 0 273.5 -55.5t193.5 -147.5v-18l-121 -127h-16 q-135 158 -326 157q-104 0 -171 -46t-67 -122q0 -53 37 -93t78 -58t121 -47z" glyph-name="Scaron" horiz-adv-x="1169" unicode="Š"/><glyph d="M494 1155h-31l-330 205v12l74 105h12l260 -140l258 140h13l73 -105v-12zM535 614q84 -35 128 -57t97 -62t76.5 -94.5t23.5 -128.5q0 -133 -107.5 -216t-281.5 -83q-131 0 -241.5 50.5t-178.5 138.5v16l113 113h18q43 -59 122 -98t163 -39q78 0 127 33.5t49 86.5 q0 29 -13.5 52.5t-26.5 38t-49 33t-53.5 25.5t-66.5 26q-76 29 -119 48t-97 55t-79.5 87t-25.5 117q0 133 101 214t271 81q113 0 214.5 -47.5t154.5 -122.5v-19l-113 -108h-16q-98 121 -244 120q-68 0 -109.5 -29.5t-41.5 -76.5t42 -75.5t142 -69.5q15 -7 21 -9z" glyph-name="scaron" horiz-adv-x="940" unicode="š"/><glyph d="M684 0h-27l-26 -88q117 0 179 -52.5t62 -144.5q0 -102 -76.5 -164.5t-201.5 -62.5q-152 0 -260 82v16l59 90h19q76 -51 161 -51q127 0 127 88q0 66 -73.5 86.5t-161.5 -4.5l-37 23l57 182h-28v1139h-430v192h1087v-192h-430v-1139z" glyph-name="Tcommaaccent" horiz-adv-x="1140" unicode="Ţ"/><glyph d="M561 -88q117 0 179.5 -52.5t62.5 -144.5q0 -102 -77 -164.5t-202 -62.5q-152 0 -260 82v16l60 90h18q76 -51 162 -51q127 0 127 88q0 66 -74 86.5t-162 -4.5l-37 23l58 180q-205 74 -205 328v524h-174v174h174v309l207 25l16 -12v-322h311v-174h-311v-510 q0 -172 146 -172q70 0 116 47l19 -8l65 -137l-6 -19q-80 -63 -194 -74z" glyph-name="tcommaaccent" horiz-adv-x="798" unicode="ţ"/><glyph d="M580 1477h-21l-352 202v17l63 102h17l284 -139l283 139h14l66 -102v-17zM27 1331h1087v-192h-430v-1139h-227v1139h-430v192z" glyph-name="Tcaron" horiz-adv-x="1140" unicode="Ť"/><glyph d="M647 1143h-112l-13 12l53 387l17 12h182l12 -12l-122 -387zM696 215l19 -8l65 -137l-6 -19q-96 -76 -225 -76q-150 0 -244 90.5t-94 260.5v524h-174v174h174v309l207 25l16 -12v-322h311v-174h-311v-510q0 -172 146 -172q69 0 116 47z" glyph-name="tcaron" horiz-adv-x="798" unicode="ť"/><glyph d="M1126 1139h-430v-432h226v-150h-226v-557h-227v557h-229v150h229v432h-430v192h1087v-192z" glyph-name="Tbar" horiz-adv-x="1167" unicode="Ŧ"/><glyph d="M727 207l66 -137l-7 -19q-96 -76 -225 -76q-150 0 -244 90.5t-94 260.5v149h-172v137h172v238h-174v174h174v309l207 25l16 -12v-322h312v-174h-312v-238h248v-137h-248v-135q0 -172 146 -172q70 0 117 47z" glyph-name="tbar" horiz-adv-x="813" unicode="ŧ"/><glyph d="M913 1505q-66 0 -181.5 39t-170.5 39q-104 0 -141 -76h-10l-15 11v157q49 84 174 84q63 0 183 -39t170 -39q109 0 139 76h10l16 -10v-158q-51 -84 -174 -84zM156 1331h227v-782q0 -166 98.5 -267.5t260 -101.5t260 101.5t98.5 267.5v782h221v-778q0 -260 -158.5 -419 t-421.5 -159q-264 0 -424.5 159t-160.5 419v778z" glyph-name="Utilde" unicode="Ũ"/><glyph d="M299 1219h-12l-13 10v145q51 84 170 84q59 0 162 -37t142 -37q115 0 147 72h10l13 -8v-148q-51 -84 -170 -83q-55 0 -154.5 37.5t-151.5 37.5q-110 1 -143 -73zM838 1024h223v-1024h-197v123q-113 -147 -317 -148q-184 0 -298 119t-114 314v616h223v-608 q0 -111 63.5 -179.5t170.5 -68.5q113 0 179.5 70.5t66.5 187.5v598z" glyph-name="utilde" horiz-adv-x="1208" unicode="ũ"/><glyph d="M428 1665h625v-162h-625v162zM156 1331h227v-782q0 -166 98.5 -267.5t260 -101.5t260 101.5t98.5 267.5v782h221v-778q0 -260 -158.5 -419t-421.5 -159q-264 0 -424.5 159t-160.5 419v778z" glyph-name="Umacron" unicode="Ū"/><glyph d="M901 1391v-162h-608v162h608zM838 1024h223v-1024h-197v123q-113 -147 -317 -148q-184 0 -298 119t-114 314v616h223v-608q0 -111 63.5 -179.5t170.5 -68.5q113 0 179.5 70.5t66.5 187.5v598z" glyph-name="umacron" horiz-adv-x="1208" unicode="ū"/><glyph d="M741.5 1438q-92.5 0 -159 64.5t-66.5 156.5t66.5 156.5t159 64.5t159 -64.5t66.5 -156.5t-66.5 -156.5t-159 -64.5zM741.5 1567q36.5 0 63 27.5t26.5 64.5t-27.5 64.5t-62.5 27.5q-37 0 -63.5 -27.5t-26.5 -64.5q0 -39 27 -65.5t63.5 -26.5zM156 1331h227v-782 q0 -166 98.5 -267.5t260 -101.5t260 101.5t98.5 267.5v782h221v-778q0 -260 -158.5 -419t-421.5 -159q-264 0 -424.5 159t-160.5 419v778z" glyph-name="Uring" unicode="Ů"/><glyph d="M598 1124q-98 0 -163.5 64.5t-65.5 157t65.5 158t163.5 65.5q96 0 161.5 -65.5t65.5 -157.5q0 -90 -66.5 -156t-160.5 -66zM598 1432q-37 0 -61.5 -25t-24.5 -61q0 -35 24.5 -59.5t61.5 -24.5t60.5 24.5t23.5 59.5q0 37 -23.5 61.5t-60.5 24.5zM838 1024h223v-1024h-197 v123q-113 -147 -317 -148q-184 0 -298 119t-114 314v616h223v-608q0 -111 63.5 -179.5t170.5 -68.5q113 0 179.5 70.5t66.5 187.5v598z" glyph-name="uring" horiz-adv-x="1208" unicode="ů"/><glyph d="M639 1794h199l10 -16l-240 -322h-145l-8 14zM985 1794h197l10 -16l-240 -322h-145l-8 14zM156 1331h227v-782q0 -166 98.5 -267.5t260 -101.5t260 101.5t98.5 267.5v782h221v-778q0 -260 -158.5 -419t-421.5 -159q-264 0 -424.5 159t-160.5 419v778z" glyph-name="Uhungarumlaut" unicode="Ű"/><glyph d="M469 1153h-109l-12 14l137 353l19 14h176l10 -14l-205 -353zM672 1153l-13 14l138 353l18 14h176l10 -14l-204 -353l-17 -14h-108zM838 1024h223v-1024h-197v123q-113 -147 -317 -148q-184 0 -298 119t-114 314v616h223v-608q0 -111 63.5 -179.5t170.5 -68.5 q113 0 179.5 70.5t66.5 187.5v598z" glyph-name="uhungarumlaut" horiz-adv-x="1208" unicode="ű"/><glyph d="M1026 37q-98 -92 -98 -180q0 -51 34.5 -84t90.5 -33q37 0 90 24l18 -4l43 -94l-2 -16q-86 -49 -182 -49q-115 0 -186.5 62.5t-71.5 162.5q0 80 47 151q-23 -2 -68 -2q-264 0 -424.5 159t-160.5 419v778h227v-782q0 -166 98.5 -267.5t260 -101.5t260 101.5t98.5 267.5v782 h221v-778q0 -180 -78 -314t-217 -202z" glyph-name="Uogonek" unicode="Ų"/><glyph d="M1186 -287l43 -94l-2 -16q-86 -49 -183 -49q-115 0 -186.5 62t-71.5 163q0 121 101 221h-23v123q-113 -147 -317 -148q-184 0 -298 119t-114 314v616h223v-608q0 -111 63.5 -179.5t170.5 -68.5q113 0 179.5 70.5t66.5 187.5v598h223v-1024l-14 -12q-14 -14 -18.5 -19.5 t-17 -20t-18.5 -22.5t-15 -24.5t-13 -28.5t-8.5 -29.5t-4.5 -33.5q0 -51 35 -84t90 -33q37 0 90 24z" glyph-name="uogonek" horiz-adv-x="1208" unicode="ų"/><glyph d="M688 1481h-16l-68 108v17l357 200h20l356 -200v-17l-67 -108h-17l-282 137zM1911 1331l10 -18l-489 -1313h-121l-338 934l-334 -934h-123l-487 1313l10 18h229l320 -936l325 936h121l332 -946l328 946h217z" glyph-name="Wcircumflex" horiz-adv-x="1947" unicode="Ŵ"/><glyph d="M537 1169h-13l-73 103v14l329 205h31l330 -205v-14l-74 -103h-12l-258 138zM1561 1024l10 -16l-375 -1008h-141l-260 692l-260 -692h-140l-368 1008l10 16h215l225 -717l260 717h119l260 -709l234 709h211z" glyph-name="wcircumflex" horiz-adv-x="1593" unicode="ŵ"/><glyph d="M377 1481h-17l-67 108v17l356 200h21l356 -200v-17l-68 -108h-16l-283 137zM1280 1313l-504 -813v-500h-227v498l-514 815l10 18h227l394 -643l383 643h221z" glyph-name="Ycircumflex" horiz-adv-x="1323" unicode="Ŷ"/><glyph d="M297 1169h-12l-74 103v14l330 205h30l330 -205v-14l-74 -103h-12l-258 138zM1053 1024l12 -16l-475 -1086q-63 -141 -137 -197.5t-185 -56.5q-102 0 -168 41l-8 19l49 139l19 6q41 -27 100 -27q43 0 74 21.5t59 87.5l51 111l-417 942l12 16h221l297 -729l295 729h201z " glyph-name="ycircumflex" horiz-adv-x="1085" unicode="ŷ"/><glyph d="M444 1481q-63 0 -107 44t-44 105q0 63 44 107.5t107 44.5q61 0 105.5 -44t44.5 -108q0 -61 -44.5 -105t-105.5 -44zM886.5 1481q-61.5 0 -105.5 44t-44 105q0 63 44 107.5t105.5 44.5t106.5 -44t45 -108q0 -61 -45 -105t-106.5 -44zM1280 1313l-504 -813v-500h-227v498 l-514 815l10 18h227l394 -643l383 643h221z" glyph-name="Ydieresis" horiz-adv-x="1323" unicode="Ÿ"/><glyph d="M436 1458h-16l-60 96v17l404 262h16l94 -152v-16zM358 186h777v-186h-1078v133l742 1012h-705v186h1002v-133z" glyph-name="Zacute" horiz-adv-x="1187" unicode="Ź"/><glyph d="M633 1546h12l100 -153v-13l-419 -225h-15l-65 100v13zM68 0v156l569 698h-549v170h815v-156l-559 -698h592v-170h-868z" glyph-name="zacute" horiz-adv-x="995" unicode="ź"/><glyph d="M594 1481q-59 0 -105.5 46t-46.5 105q0 63 45 108.5t107 45.5q63 0 108.5 -45t45.5 -109q0 -61 -46.5 -106t-107.5 -45zM358 186h777v-186h-1078v133l742 1012h-705v186h1002v-133z" glyph-name="Zdotaccent" horiz-adv-x="1187" unicode="Ż"/><glyph d="M501.5 1196q-63.5 0 -108.5 46t-45 109.5t45 108.5t108.5 45t109.5 -45t46 -108q0 -66 -46 -111t-109.5 -45zM68 0v156l569 698h-549v170h815v-156l-559 -698h592v-170h-868z" glyph-name="zdotaccent" horiz-adv-x="995" unicode="ż"/><glyph d="M604 1477h-20l-353 202v17l64 102h16l285 -139l283 139h14l65 -102v-17zM358 186h777v-186h-1078v133l742 1012h-705v186h1002v-133z" glyph-name="Zcaron" horiz-adv-x="1187" unicode="Ž"/><glyph d="M518 1155h-31l-329 205v12l73 105h13l260 -140l258 140h12l74 -105v-12zM344 170h592v-170h-868v156l569 698h-549v170h815v-156z" glyph-name="zcaron" horiz-adv-x="995" unicode="ž"/><glyph d="M1098 35l-15 -15l-18 -18t-17.5 -18.5t-18.5 -23.5t-14 -24.5t-14.5 -27.5t-8.5 -29.5t-3 -34.5q0 -51 35 -83.5t90 -32.5q37 0 90 24l19 -4l43 -94l-2 -16q-86 -49 -183 -50q-115 0 -186.5 62.5t-71.5 163.5q0 88 56 166q-53 -4 -80 -5q-305 0 -510 198t-205 493 t205 492.5t510 197.5t509.5 -197.5t204.5 -492.5q0 -215 -113.5 -383t-301.5 -248zM315 666q0 -211 138.5 -348.5t345.5 -137.5t346 137.5t139 348.5t-139 348t-346 137t-345.5 -137t-138.5 -348z" glyph-name="uni01EA" horiz-adv-x="1597" unicode="Ǫ"/><glyph d="M817 4q-102 -96 -102 -184q0 -51 34.5 -84t90.5 -33q37 0 90 25l18 -4l43 -95l-2 -16q-86 -49 -182 -49q-115 0 -186.5 62.5t-71.5 162.5q0 96 69 186q-233 2 -387.5 157t-154.5 380q0 229 157.5 383t395.5 154q240 0 397.5 -154t157.5 -383q0 -180 -100.5 -316.5 t-266.5 -191.5zM299 512q0 -147 93 -244.5t237 -97.5q145 0 238.5 97.5t93.5 244.5t-93.5 244.5t-238.5 97.5q-143 0 -236.5 -97.5t-93.5 -244.5z" glyph-name="uni01EB" horiz-adv-x="1259" unicode="ǫ"/><glyph d="M1266 1458h-17l-59 96v17l403 262h17l94 -152v-16zM1219 193h698v-193h-926v270h-579l-189 -270h-241l-9 18l928 1313h1014v-192h-696v-377h548v-184h-548v-385zM532 442h459v656z" glyph-name="AEacute" horiz-adv-x="2007" unicode="Ǽ"/><glyph d="M772 1155h-14l-66 100v13l387 278h13l100 -153v-13zM1835 457h-817q12 -143 107.5 -223t228.5 -80q90 0 177 34.5t142 100.5h19l112 -103v-16q-76 -96 -201.5 -145.5t-254.5 -49.5q-139 0 -259 57.5t-196 162.5q-68 -100 -184.5 -160t-247.5 -60q-180 0 -291 90.5 t-111 239.5q0 156 121 251t318 95q139 0 286 -63v67q0 96 -74.5 156.5t-191.5 60.5q-166 0 -289 -100h-16l-82 125v16q76 63 188.5 99.5t219.5 36.5q276 0 389 -175q152 174 397 175q219 0 365 -142q152 -147 151 -379q0 -44 -6 -71zM1321 874q-121 0 -202 -71.5t-99 -192.5 h600q-16 113 -82 178q-82 86 -217 86zM502 139q111 0 197.5 78t86.5 178v31q-139 70 -266 70q-109 0 -175 -51.5t-66 -135.5q0 -76 61.5 -123t161.5 -47z" glyph-name="aeacute" horiz-adv-x="1910" unicode="ǽ"/><glyph d="M639 1458h-16l-60 96v17l404 262h16l94 -152v-16zM1266 1198q117 -96 182 -233.5t65 -298.5q0 -295 -204.5 -493t-509.5 -198q-160 0 -305 62l-97 -146h-211l-10 19l152 227q-244 201 -244 529q0 295 205 492.5t510 197.5q160 0 301 -60l108 164h209l10 -18zM315 666 q0 -205 136 -344l530 796q-88 33 -182 33q-207 0 -345.5 -137t-138.5 -348zM799 180q207 0 346 137.5t139 348.5q0 213 -141 350l-531 -801q89 -35 187 -35z" glyph-name="Oslashacute" horiz-adv-x="1597" unicode="Ǿ"/><glyph d="M455 1155h-15l-65 100v13l387 278h12l100 -153v-13zM1018 903q166 -154 166 -391q0 -229 -158 -383t-397 -154q-125 0 -226 43l-81 -116h-207l-11 18l140 199q-168 158 -168 393q0 229 157.5 383t395.5 154q123 0 231 -45l101 145h204l11 -19zM299 512q0 -125 68 -215 l374 539q-53 18 -112 18q-143 0 -236.5 -97.5t-93.5 -244.5zM629 170q145 0 238.5 97.5t93.5 244.5q0 121 -66 213l-375 -539q54 -16 109 -16z" glyph-name="oslashacute" horiz-adv-x="1259" unicode="ǿ"/><glyph d="M600 -25q-166 0 -310.5 68t-232.5 186v19l123 127h19q72 -92 178 -147.5t209 -55.5q123 0 195.5 51t72.5 133q0 39 -15.5 70t-36 50.5t-61.5 39t-72.5 29.5t-89 29.5t-94.5 31.5q-74 27 -125 51.5t-111.5 68.5t-92 109.5t-31.5 147.5q0 164 129 268.5t336 104.5 q152 0 273.5 -55.5t193.5 -147.5v-18l-121 -127h-16q-135 158 -326 157q-104 0 -171 -46t-67 -122q0 -53 37 -93t78 -58.5t121 -46.5q12 -4 74.5 -24.5t80 -28t71.5 -29t74.5 -36.5t60.5 -41t57.5 -52.5t39 -61t29.5 -75.5t8 -91q0 -176 -137 -280.5t-350 -104.5zM492 -121 l14 15h178l12 -15l-112 -358l-15 -15h-114l-13 15z" glyph-name="Scommaaccent" horiz-adv-x="1169" unicode="Ș"/><glyph d="M471 -27q-131 0 -241.5 50.5t-178.5 138.5v16l113 113h18q43 -59 122 -98t163 -39q78 0 127 33.5t49 86.5q0 29 -13.5 52.5t-26.5 38t-49 33t-53.5 25.5t-66.5 26q-76 29 -119 48t-97 55t-79.5 87t-25.5 117q0 133 101 214t271 81q113 0 214.5 -47.5t154.5 -122.5v-19 l-113 -108h-16q-98 121 -244 120q-68 0 -109.5 -29.5t-41.5 -76.5t42 -75.5t142 -69.5l21 -9q84 -35 128 -57t97 -62t76.5 -94.5t23.5 -128.5q0 -133 -107.5 -216t-281.5 -83zM367 -121l14 15h178l12 -15l-112 -358l-15 -15h-114l-13 15z" glyph-name="scommaaccent" horiz-adv-x="940" unicode="ș"/><glyph d="M684 1139v-1139h-227v1139h-430v192h1087v-192h-430zM465 -121l14 15h178l13 -15l-113 -358l-14 -15h-115l-12 15z" glyph-name="uni021A" horiz-adv-x="1140" unicode="Ț"/><glyph d="M715 207l65 -137l-6 -19q-96 -76 -225 -76q-150 0 -244 90.5t-94 260.5v524h-174v174h174v309l207 25l16 -12v-322h311v-174h-311v-510q0 -172 146 -172q70 0 116 47zM412 -106h178l12 -15l-113 -358l-14 -15h-115l-12 15l49 358z" glyph-name="uni021B" horiz-adv-x="798" unicode="ț"/><glyph d="M152 1024h223v-920q0 -184 -58.5 -278t-210.5 -166h-18l-82 162v16q84 45 115 99.5t31 168.5v918z" glyph-name="uni0237" horiz-adv-x="522" unicode="ȷ"/><glyph d="M137 1528l17 12h182l12 -12l-119 -361l-16 -12h-117l-10 12z" glyph-name="afii57929" horiz-adv-x="395" unicode="ʼ"/><glyph d="M453 1491l329 -205v-14l-73 -103h-13l-258 138l-260 -138h-12l-74 103v14l330 205h31z" glyph-name="circumflex" horiz-adv-x="849" unicode="ˆ"/><glyph d="M709 1477l73 -105v-12l-329 -205h-31l-330 205v12l74 105h12l260 -140l258 140h13z" glyph-name="caron" horiz-adv-x="860" unicode="ˇ"/><glyph d="M385 1184q-133 0 -223 84t-107 217h164q12 -70 57.5 -112t109 -42t108.5 42t57 112h164q-16 -133 -106.5 -217t-223.5 -84z" glyph-name="breve" horiz-adv-x="774" unicode="˘"/><glyph d="M201 1196q-63 0 -108.5 46t-45.5 109.5t45 108.5t108.5 45t109.5 -45t46 -108q0 -66 -44.5 -111t-110.5 -45z" glyph-name="dotaccent" horiz-adv-x="401" unicode="˙"/><glyph d="M311 1124q-98 0 -163.5 64.5t-65.5 157t65.5 158t163.5 65.5q96 0 162 -65.5t66 -157.5q0 -90 -67 -156t-161 -66zM311 1262q37 0 60.5 24.5t23.5 59.5q0 37 -23.5 61.5t-60.5 24.5t-61.5 -25t-24.5 -61q0 -35 24.5 -59.5t61.5 -24.5z" glyph-name="ring" horiz-adv-x="620" unicode="˚"/><glyph d="M442 -438q-115 0 -186.5 62.5t-71.5 162.5q0 145 140 256l135 -35l-15 -12q-14 -14 -18 -19.5t-16.5 -19.5t-18.5 -22.5t-15 -24.5t-13.5 -28.5t-8.5 -30t-4 -33.5q0 -51 35 -84t90 -33q37 0 90 25l19 -5l43 -94l-2 -16q-87 -49 -183 -49z" glyph-name="ogonek" horiz-adv-x="591" unicode="˛"/><glyph d="M600 1217q-55 0 -154.5 37.5t-150.5 37.5q-111 0 -143 -73h-13l-12 10v145q51 84 170 84q59 0 161.5 -37t141.5 -37q115 0 148 72h10l12 -8v-148q-51 -83 -170 -83z" glyph-name="tilde" horiz-adv-x="897" unicode="˜"/><glyph d="M211 1520l18 14h177l10 -14l-205 -353l-16 -14h-109l-12 14zM522 1520l19 14h176l10 -14l-205 -353l-16 -14h-109l-12 14z" glyph-name="hungarumlaut" horiz-adv-x="798" unicode="˝"/><glyph d="M-276 -121l14 15h178l12 -15l-112 -358l-15 -15h-114l-13 15z" glyph-name="uni0326" horiz-adv-x="0" unicode="̦"/><glyph d="M1176 1458h-17l-438 207v16l94 152h16l406 -262v-17zM1911 1331l10 -18l-489 -1313h-121l-338 934l-334 -934h-123l-487 1313l10 18h229l320 -936l325 936h121l332 -946l328 946h217z" glyph-name="Wgrave" horiz-adv-x="1947" unicode="Ẁ"/><glyph d="M979 1155h-12l-420 225v13l100 153h12l388 -278v-13zM1561 1024l10 -16l-375 -1008h-141l-260 692l-260 -692h-140l-368 1008l10 16h215l225 -717l260 717h119l260 -709l234 709h211z" glyph-name="wgrave" horiz-adv-x="1593" unicode="ẁ"/><glyph d="M817 1458h-16l-60 96v17l404 262h16l94 -152v-16zM1911 1331l10 -18l-489 -1313h-121l-338 934l-334 -934h-123l-487 1313l10 18h229l320 -936l325 936h121l332 -946l328 946h217z" glyph-name="Wacute" horiz-adv-x="1947" unicode="Ẃ"/><glyph d="M621 1155h-15l-65 100v13l387 278h12l100 -153v-13zM1561 1024l10 -16l-375 -1008h-141l-260 692l-260 -692h-140l-368 1008l10 16h215l225 -717l260 717h119l260 -709l234 709h211z" glyph-name="wacute" horiz-adv-x="1593" unicode="ẃ"/><glyph d="M754 1481q-63 0 -107.5 44t-44.5 105q0 63 44 107.5t108 44.5q61 0 105 -44t44 -108q0 -61 -44 -105t-105 -44zM1196 1481q-61 0 -105 44t-44 105q0 63 44 107.5t105 44.5t106.5 -44t45.5 -108q0 -61 -45.5 -105t-106.5 -44zM1911 1331l10 -18l-489 -1313h-121l-338 934 l-334 -934h-123l-487 1313l10 18h229l320 -936l325 936h121l332 -946l328 946h217z" glyph-name="Wdieresis" horiz-adv-x="1947" unicode="Ẅ"/><glyph d="M596 1196q-59 0 -102 43t-43 102.5t43 102.5t102 43q61 0 103 -43t42 -102.5t-42 -102.5t-103 -43zM995 1196q-59 0 -102 43t-43 102.5t43 102.5t102 43q61 0 103.5 -43t42.5 -102.5t-42.5 -102.5t-103.5 -43zM1561 1024l10 -16l-375 -1008h-141l-260 692l-260 -692h-140 l-368 1008l10 16h215l225 -717l260 717h119l260 -709l234 709h211z" glyph-name="wdieresis" horiz-adv-x="1593" unicode="ẅ"/><glyph d="M891 809q182 -27 280.5 -143.5t98.5 -272.5q0 -174 -126 -296t-343 -122q-176 0 -309 82l-11 19l78 145l19 8q86 -57 186 -57q131 0 204.5 69.5t73.5 172t-77.5 171t-216.5 68.5h-101v162l227 270q-80 74 -202 74q-129 0 -208 -83t-79 -216v-860h-227v846 q0 225 146.5 367.5t377.5 142.5q143 0 273 -65.5t194 -168.5z" glyph-name="uni1E9E" horiz-adv-x="1347" unicode="ẞ"/><glyph d="M864 1458h-16l-438 207v16l94 152h16l406 -262v-17zM1280 1313l-504 -813v-500h-227v498l-514 815l10 18h227l394 -643l383 643h221z" glyph-name="Ygrave" horiz-adv-x="1323" unicode="Ỳ"/><glyph d="M737 1155h-12l-420 225v13l101 153h12l387 -278v-13zM1053 1024l12 -16l-475 -1086q-63 -141 -137 -197.5t-185 -56.5q-102 0 -168 41l-8 19l49 139l19 6q41 -27 100 -27q43 0 74 21.5t59 87.5l51 111l-417 942l12 16h221l297 -729l295 729h201z" glyph-name="ygrave" horiz-adv-x="1085" unicode="ỳ"/><glyph d="M344 1507h-10l-15 11v157q49 84 175 84q63 0 183 -39t169 -39q109 0 139 76h10l17 -10v-158q-51 -84 -174 -84q-66 0 -181.5 39t-171.5 39q-104 0 -141 -76zM1280 1313l-504 -813v-500h-227v498l-514 815l10 18h227l394 -643l383 643h221z" glyph-name="uni1EF8" horiz-adv-x="1323" unicode="Ỹ"/><glyph d="M258 1219h-12l-13 10v145q51 84 170 84q57 0 161 -37t143 -37q115 0 147 72h10l13 -8v-148q-51 -84 -170 -83q-55 0 -154.5 37.5t-151.5 37.5q-110 1 -143 -73zM1053 1024l12 -16l-475 -1086q-63 -141 -137 -197.5t-185 -56.5q-102 0 -168 41l-8 19l49 139l19 6 q41 -27 100 -27q43 0 74 21.5t59 87.5l51 111l-417 942l12 16h221l297 -729l295 729h201z" glyph-name="uni1EF9" horiz-adv-x="1085" unicode="ỹ"/><glyph d="M125 702h952v-176h-952v176z" glyph-name="endash" horiz-adv-x="1202" unicode="–"/><glyph d="M125 702h1247v-176h-1247v176z" glyph-name="emdash" horiz-adv-x="1495" unicode="—"/><glyph d="M319 1397l56 -47v-19q-119 -152 -119 -209q53 -10 87 -51t34 -94q0 -63 -43 -106.5t-107 -43.5q-68 0 -108.5 43t-40.5 115q0 86 51 177t174 235h16z" glyph-name="quoteleft" horiz-adv-x="473" unicode="‘"/><glyph d="M162 829l-53 48v18q119 152 118 209q-53 10 -87 51t-34 94q0 63 43.5 105.5t106.5 42.5q68 0 107.5 -42t39.5 -114q2 -86 -50 -178t-173 -234h-18z" glyph-name="quoteright" horiz-adv-x="468" unicode="’"/><glyph d="M150 -309l-54 47v18q119 152 119 209q-53 8 -87 50t-34 96q0 63 43 105t107 42q68 0 107.5 -42t39.5 -114q2 -86 -50 -178t-173 -233h-18z" glyph-name="quotesinglbase" horiz-adv-x="489" unicode="‚"/><glyph d="M319 1403l56 -45v-19q-119 -154 -119 -209q53 -10 87 -51t34 -96q0 -61 -43 -104t-107 -43q-68 0 -108.5 43t-40.5 112q0 86 52 178.5t173 233.5h16zM707 1403l53 -45v-19q-119 -154 -119 -209q53 -10 87 -51t34 -96q0 -61 -43 -104t-107 -43q-68 0 -107.5 42t-39.5 113 q-2 86 50 178.5t173 233.5h19z" glyph-name="quotedblleft" horiz-adv-x="860" unicode="“"/><glyph d="M162 829l-53 48v18q119 152 118 209q-53 10 -87 51t-34 94q0 63 43.5 105.5t106.5 42.5q68 0 107.5 -42t39.5 -114q2 -86 -50 -178t-173 -234h-18zM549 829l-55 48v18q119 152 118 209q-53 10 -86.5 51t-33.5 94q0 63 43 105.5t106 42.5q68 0 109 -43t41 -113 q0 -86 -52.5 -178t-173.5 -234h-16z" glyph-name="quotedblright" horiz-adv-x="854" unicode="”"/><glyph d="M150 -311l-54 47v18q119 152 119 209q-53 10 -87 51t-34 95q0 63 43 105t107 42q68 0 107.5 -42t39.5 -114q2 -84 -49 -176t-174 -235h-18zM537 -311l-56 47v18q119 152 119 209q-53 10 -87 51t-34 95q0 63 43 105t107 42q68 0 108.5 -43t40.5 -113q0 -86 -51 -177 t-174 -234h-16z" glyph-name="quotedblbase" horiz-adv-x="874" unicode="„"/><glyph d="M952 954v-176h-315v-1097h-221v1097h-316v176h316v398h221v-398h315z" glyph-name="dagger" horiz-adv-x="1052" unicode="†"/><glyph d="M952 778h-315v-524h315v-176h-315v-397h-221v397h-316v176h316v524h-316v176h316v398h221v-398h315v-176z" glyph-name="daggerdbl" horiz-adv-x="1052" unicode="‡"/><glyph d="M387 340q-100 0 -172 71.5t-72 172t72 171t172 70.5t172 -70.5t72 -171t-72 -172t-172 -71.5z" glyph-name="bullet" horiz-adv-x="774" unicode="•"/><glyph d="M241.5 -25q-63.5 0 -108.5 45.5t-45 109t45 108.5t109 45q66 0 110.5 -45t44.5 -108.5t-46 -109t-109.5 -45.5zM677.5 -25q-63.5 0 -108.5 45.5t-45 109t45 108.5t108.5 45t108.5 -45t45 -108.5t-45 -109t-108.5 -45.5zM1110.5 -25q-63.5 0 -109 45.5t-45.5 109t44 108.5 t110 45t110 -45t44 -108.5t-45 -109t-108.5 -45.5z" glyph-name="ellipsis" horiz-adv-x="1351" unicode="…"/><glyph d="M383 586q-141 0 -229 108.5t-88 282.5q0 176 88 283.5t229 107.5t229 -107.5t88 -283.5q0 -174 -88 -282.5t-229 -108.5zM231 10l1037 1333h180l10 -16l-1034 -1333h-182zM383 735q68 0 111 66.5t43 175.5q0 111 -42 176.5t-112 65.5t-112 -66t-42 -176q0 -109 42 -175.5 t112 -66.5zM1315 -31q-141 0 -229.5 107.5t-88.5 284t88.5 284t229.5 107.5t229 -107.5t88 -284t-88 -284t-229 -107.5zM2060.5 -31q-141.5 0 -229.5 107.5t-88 284t88 284t229.5 107.5t229.5 -107.5t88 -284t-88 -284t-229.5 -107.5zM1314.5 119q69.5 0 111.5 65.5 t42 175.5q0 109 -42 175.5t-111.5 66.5t-111.5 -66.5t-42 -175.5q0 -111 42 -176t111.5 -65zM2060.5 119q69.5 0 111.5 65.5t42 175.5q0 109 -42 175.5t-111.5 66.5t-111.5 -66.5t-42 -175.5q0 -111 42 -176t111.5 -65z" glyph-name="perthousand" horiz-adv-x="2439" unicode="‰"/><glyph d="M535 907v-12l-244 -283l244 -282v-13l-109 -104h-12l-340 385v31l340 383h12z" glyph-name="guilsinglleft" horiz-adv-x="638" unicode="‹"/><glyph d="M225 1012l338 -383v-31l-338 -385h-12l-109 104v13l244 282l-244 283v12l109 105h12z" glyph-name="guilsinglright" horiz-adv-x="638" unicode="›"/><glyph d="M-49 10l1036 1333h180l11 -16l-1035 -1333h-182z" glyph-name="fraction" horiz-adv-x="1128" unicode="⁄"/><glyph d="M905 1151q-139 0 -247.5 -80t-155.5 -215h588l10 -18l-49 -115h-580q-2 -18 -2 -57q0 -29 4 -78h582l8 -19l-45 -112h-510q51 -127 157.5 -202t239.5 -75q231 0 365 191h14l141 -117v-16q-90 -123 -225 -193t-299 -70q-223 0 -396 133.5t-235 348.5h-204l-11 16l47 115 h144q-4 49 -4 78q0 39 2 57h-142l-10 18l45 115h129q57 223 232.5 361.5t404.5 138.5q160 0 296 -69.5t226 -192.5v-17l-141 -116h-14q-134 190 -365 190z" glyph-name="Euro" horiz-adv-x="1511" unicode="€"/><glyph d="M61 1214v117h549v-117h-200v-550h-150v550h-199zM1421 664h-145l-41 366l-160 -366h-98l-158 364l-39 -364h-145l78 667h110l205 -471l203 471h110z" glyph-name="trademark" horiz-adv-x="1542" unicode="™"/><glyph d="M131 756h979v-178h-979v178z" glyph-name="minus" horiz-adv-x="1241" unicode="−"/><glyph d="M846 731q-78 0 -230.5 36t-234.5 36q-51 0 -95 -20.5t-65 -51.5h-16l-80 123v16q27 31 49.5 49.5t76.5 36t130 17.5q88 0 253 -36t212 -36q117 0 164 72h16l80 -121v-16q-31 -33 -50.5 -50.5t-75.5 -36t-134 -18.5zM846 358q-78 0 -230.5 36t-234.5 36q-51 0 -95 -20.5 t-65 -51.5h-16l-80 121v17q27 31 49.5 49t76.5 36.5t130 18.5q88 0 253 -36t212 -36q117 0 164 72h16l80 -123v-14q-31 -33 -50.5 -50.5t-75.5 -36t-134 -18.5z" glyph-name="approxequal" horiz-adv-x="1230" unicode="≈"/><glyph d="M1128 760h-346l-112 -189h458v-163h-557l-149 -252h-176l-8 18l139 234h-254v163h352l111 189h-463v164h561l152 254h176l8 -21l-139 -233h247v-164z" glyph-name="notequal" horiz-adv-x="1241" unicode="≠"/><glyph d="M1435.5 1174q-53.5 0 -87 35.5t-33.5 88.5q0 51 33.5 86t87 35t87 -34.5t33.5 -86.5q0 -53 -33.5 -88.5t-87 -35.5zM127 670q0 303 10 446l13 182h194q2 -47 10 -184q10 -190 11 -444h-238zM938 1135l238 73l8 -61h352q8 -104 8 -109q8 -100 8 -368h-233q0 248 4 295 h-117l4 -129q0 -2 4 -2q2 -2 19 -3q10 0 27 5l8 4v-148q-2 -8 -21 -18q-37 -16 -106 -17q-160 0 -160 131q0 31 2 103t2 74h-47v170zM737 788q-25 -131 -151 -131q-182 0 -183 230q0 133 63.5 200.5t207.5 67.5q238 0 237 -229v-256h-155zM1599 670q0 244 11 370 q6 66 12 107h156l6 -51q6 -92 6 -101l4 21q6 18 16.5 39.5t27.5 45t48 39t70 15.5q82 0 115.5 -48t35.5 -159l4 -278h-229q0 51 2 110.5t2 81.5q0 51 -31 51q-35 0 -34 -51q0 -23 5 -82t5 -110h-232zM2142 901q0 254 246 254q141 0 194.5 -67.5t53.5 -186.5 q0 -113 -61.5 -178.5t-186.5 -65.5q-123 0 -184.5 65.5t-61.5 178.5zM664 817q49 0 49 62q0 55 -49 55q-43 0 -43 -55q0 -62 43 -62zM2388 817q49 0 49 62q0 55 -49 55q-47 0 -47 -55q0 -62 47 -62zM123 567l248 82l8 -59h338q-2 -39 -2 -107q-2 -55 -2 -110q0 -53 32 -54 q31 0 31 54q0 2 -1 18.5t-1 42v49.5q-2 31 -2 107h217l6 -82q6 -78 6 -215q0 -147 -73.5 -214t-233.5 -67q-88 0 -149 21q-29 8 -41 22v170q12 -10 37 -20q45 -18 110 -19q80 0 125 37q20 16 23 37q-8 -6 -23 -16q-33 -14 -94 -15q-190 0 -190 152v16h-93l4 -125q27 0 43 7 l15 6v-152q-10 -10 -31 -18q-45 -16 -106 -17q-150 0 -150 131q0 23 1 63t2 70.5t1 34.5h-55v170zM1040 12q0 295 11 420l12 158h160l6 -60q8 -43 8 -94q29 170 160 170q74 0 116.5 -60.5t42.5 -168.5q0 -135 -67.5 -207t-192.5 -72q0 -14 2 -22q0 -6 1 -27.5t1 -36.5h-260z M2011 131q-4 -4 -35 -16q-49 -16 -112 -17q-137 0 -205 66.5t-68 181.5q0 260 252 260q106 0 168 -61.5t62 -171.5q0 -10 -7 -54l-4 -20h-245q2 -16 12 -25q25 -25 78 -24.5t80 14.5q20 12 24 17v-150zM2120 518q0 31 22.5 53.5t53 22.5t53 -22.5t22.5 -53.5t-22.5 -53.5 t-53 -22.5t-53 22.5t-22.5 53.5zM2195.5 457q24.5 0 43 18.5t18.5 43t-18.5 43t-43 18.5t-43 -18.5t-18.5 -43t18.5 -43t43 -18.5zM2167 557h33q31 0 30 -25q0 -18 -16 -24l16 -27h-18l-14 23h-15v-23h-16v76zM2200 518q14 0 14 12.5t-14 12.5h-17v-25h17zM1884 350v4v4 q2 4 2 9q0 39 -37 39q-45 0 -45 -56h80zM1266 264q27 4 39 10q39 23 38 64q0 43 -38 43q-47 0 -48 -62q0 -18 5 -38z" glyph-name="uniF8FF" horiz-adv-x="2758" unicode=""/><glyph d="M281 1331h593v-870q0 -242 -119.5 -364t-322.5 -122q-272 0 -416 205v19l136 127h16q102 -145 252 -146q100 0 163.5 67.5t63.5 188.5v703h-366v192z" glyph-name="J.aalt" horiz-adv-x="1034"/><glyph d="M1454 -78l78 -141l-6 -17q-80 -70 -199 -69q-131 0 -274 117q-18 14 -53 44.5t-54.5 47t-47.5 35t-52.5 27.5t-46.5 9q-305 0 -510 198t-205 493t205 492.5t510 197.5t509.5 -197.5t204.5 -492.5q0 -213 -112.5 -382t-300.5 -249l30 -25q8 -6 36 -30.5t41.5 -35t37 -25.5 t45 -21.5t43.5 -6.5q63 0 107 37zM315 666q0 -211 138.5 -348.5t345.5 -137.5t346 137.5t139 348.5t-139 348t-346 137t-345.5 -137t-138.5 -348z" glyph-name="Q.aalt" horiz-adv-x="1597"/><glyph d="M262 1196q-63 0 -108 46t-45 109.5t45 108.5t108.5 45t109.5 -45t46 -108q0 -66 -45 -111t-111 -45zM152 0v1024h221v-1024h-221z" glyph-name="i.aalt" horiz-adv-x="524"/><glyph d="M950 1024h197v-1024h-197v125q-145 -150 -358 -150q-225 0 -370.5 155t-145.5 382t145.5 382t370.5 155q213 0 358 -146v121zM623 170q137 0 228 90t91 252q0 160 -92 251t-227 91q-143 0 -233.5 -98.5t-90.5 -243.5t90.5 -243.5t233.5 -98.5z" glyph-name="a.salt" horiz-adv-x="1294"/><glyph d="M442 1155h-14l-66 100v13l388 278h12l100 -153v-13zM950 1024h197v-1024h-197v125q-145 -150 -358 -150q-225 0 -370.5 155t-145.5 382t145.5 382t370.5 155q213 0 358 -146v121zM623 170q137 0 228 90t91 252q0 160 -92 251t-227 91q-143 0 -233.5 -98.5t-90.5 -243.5 t90.5 -243.5t233.5 -98.5z" glyph-name="aacute.aalt" horiz-adv-x="1294"/><glyph d="M618.5 1184q-133.5 0 -223.5 84t-106 217h164q12 -70 57 -112t108.5 -42t108.5 42t57 112h164q-16 -133 -106 -217t-223.5 -84zM950 1024h197v-1024h-197v125q-145 -150 -358 -150q-225 0 -370.5 155t-145.5 382t145.5 382t370.5 155q213 0 358 -146v121zM623 170 q137 0 228 90t91 252q0 160 -92 251t-227 91q-143 0 -233.5 -98.5t-90.5 -243.5t90.5 -243.5t233.5 -98.5z" glyph-name="abreve.aalt" horiz-adv-x="1294"/><glyph d="M360 1169h-12l-74 103v14l330 205h31l330 -205v-14l-74 -103h-12l-258 138zM950 1024h197v-1024h-197v125q-145 -150 -358 -150q-225 0 -370.5 155t-145.5 382t145.5 382t370.5 155q213 0 358 -146v121zM623 170q137 0 228 90t91 252q0 160 -92 251t-227 91 q-143 0 -233.5 -98.5t-90.5 -243.5t90.5 -243.5t233.5 -98.5z" glyph-name="acircumflex.aalt" horiz-adv-x="1294"/><glyph d="M418 1196q-59 0 -102.5 43t-43.5 102.5t43 102.5t103 43q61 0 103 -43t42 -102.5t-42 -102.5t-103 -43zM817 1196q-59 0 -102 43t-43 102.5t43 102.5t102 43q61 0 103.5 -43t42.5 -102.5t-42.5 -102.5t-103.5 -43zM950 1024h197v-1024h-197v125q-145 -150 -358 -150 q-225 0 -370.5 155t-145.5 382t145.5 382t370.5 155q213 0 358 -146v121zM623 170q137 0 228 90t91 252q0 160 -92 251t-227 91q-143 0 -233.5 -98.5t-90.5 -243.5t90.5 -243.5t233.5 -98.5z" glyph-name="adieresis.aalt" horiz-adv-x="1294"/><glyph d="M801 1155h-13l-419 225v13l100 153h12l387 -278v-13zM950 1024h197v-1024h-197v125q-145 -150 -358 -150q-225 0 -370.5 155t-145.5 382t145.5 382t370.5 155q213 0 358 -146v121zM623 170q137 0 228 90t91 252q0 160 -92 251t-227 91q-143 0 -233.5 -98.5t-90.5 -243.5 t90.5 -243.5t233.5 -98.5z" glyph-name="agrave.aalt" horiz-adv-x="1294"/><glyph d="M924 1391v-162h-609v162h609zM950 1024h197v-1024h-197v125q-145 -150 -358 -150q-225 0 -370.5 155t-145.5 382t145.5 382t370.5 155q213 0 358 -146v121zM623 170q137 0 228 90t91 252q0 160 -92 251t-227 91q-143 0 -233.5 -98.5t-90.5 -243.5t90.5 -243.5 t233.5 -98.5z" glyph-name="amacron.aalt" horiz-adv-x="1294"/><glyph d="M1272 -287l43 -94l-2 -16q-86 -49 -183 -49q-115 0 -186.5 62t-71.5 163q0 121 101 221h-23v125q-145 -150 -358 -150q-225 0 -370.5 155t-145.5 382t145.5 382t370.5 155q213 0 358 -146v121h197v-1024l-14 -12q-14 -14 -18.5 -19.5t-17 -20t-18.5 -22.5t-15 -24.5 t-13 -28.5t-8.5 -29.5t-4.5 -33.5q0 -51 35 -84t90 -33q37 0 90 24zM623 170q137 0 228 90t91 252q0 160 -92 251t-227 91q-143 0 -233.5 -98.5t-90.5 -243.5t90.5 -243.5t233.5 -98.5z" glyph-name="aogonek.aalt" horiz-adv-x="1294"/><glyph d="M621 1124q-98 0 -164 64.5t-66 157t65.5 158t164.5 65.5q96 0 161.5 -65.5t65.5 -157.5q0 -90 -66.5 -156t-160.5 -66zM620.5 1432q-36.5 0 -61 -25t-24.5 -61q0 -35 24.5 -59.5t61 -24.5t60.5 24.5t24 59.5q0 37 -24 61.5t-60.5 24.5zM950 1024h197v-1024h-197v125 q-145 -150 -358 -150q-225 0 -370.5 155t-145.5 382t145.5 382t370.5 155q213 0 358 -146v121zM623 170q137 0 228 90t91 252q0 160 -92 251t-227 91q-143 0 -233.5 -98.5t-90.5 -243.5t90.5 -243.5t233.5 -98.5z" glyph-name="aring.aalt" horiz-adv-x="1294"/><glyph d="M322 1219h-13l-12 10v145q51 84 170 84q57 0 159.5 -37t143.5 -37q115 0 148 72h10l12 -8v-148q-51 -84 -170 -83q-55 0 -154.5 37.5t-150.5 37.5q-110 1 -143 -73zM950 1024h197v-1024h-197v125q-145 -150 -358 -150q-225 0 -370.5 155t-145.5 382t145.5 382t370.5 155 q213 0 358 -146v121zM623 170q137 0 228 90t91 252q0 160 -92 251t-227 91q-143 0 -233.5 -98.5t-90.5 -243.5t90.5 -243.5t233.5 -98.5z" glyph-name="atilde.aalt" horiz-adv-x="1294"/><glyph d="M1989 457h-818q12 -143 106.5 -223t227.5 -80q90 0 178.5 34.5t143.5 100.5h16l113 -103v-16q-76 -96 -199 -145.5t-246 -49.5q-213 0 -372 170v-153h-191v131q-147 -147 -356 -148q-225 0 -370.5 155t-145.5 382t145.5 382t370.5 155q209 0 356 -144v127h191v-127 q143 143 356 144q221 0 360.5 -148.5t139.5 -372.5q0 -44 -6 -71zM1474.5 874q-124.5 0 -205.5 -74.5t-98 -201.5h605q-16 127 -96.5 201.5t-205 74.5zM623 170q137 0 228 90t91 252q0 160 -92 251t-227 91q-143 0 -233.5 -98.5t-90.5 -243.5t90.5 -243.5t233.5 -98.5z" glyph-name="ae.aalt" horiz-adv-x="2064"/><glyph d="M870 1155h-14l-65 100v13l387 278h12l100 -153v-13zM1989 457h-818q12 -143 106.5 -223t227.5 -80q90 0 178.5 34.5t143.5 100.5h16l113 -103v-16q-76 -96 -199 -145.5t-246 -49.5q-213 0 -372 170v-153h-191v131q-147 -147 -356 -148q-225 0 -370.5 155t-145.5 382 t145.5 382t370.5 155q209 0 356 -144v127h191v-127q143 143 356 144q221 0 360.5 -148.5t139.5 -372.5q0 -44 -6 -71zM1474.5 874q-124.5 0 -205.5 -74.5t-98 -201.5h605q-16 127 -96.5 201.5t-205 74.5zM623 170q137 0 228 90t91 252q0 160 -92 251t-227 91 q-143 0 -233.5 -98.5t-90.5 -243.5t90.5 -243.5t233.5 -98.5z" glyph-name="aeacute.aalt" horiz-adv-x="2064"/><glyph d="M1366 207l66 -137l-7 -19q-96 -76 -227 -76q-150 0 -243 89.5t-93 261.5v524h-409v-850h-222v850h-174v174h174v29q0 180 100.5 279.5t256.5 99.5q88 0 164 -37l8 -17l-51 -139l-19 -8q-39 20 -80 20q-158 0 -157 -198v-29h409v309l205 25l16 -12v-322h314v-174h-314 v-510q0 -172 148 -172q70 0 117 47z" glyph-name="f_t.dlig" horiz-adv-x="1449"/><glyph d="M821 827l25 -102l-6 -10q-37 -27 -90 -27q-96 0 -129 88q-92 -88 -220 -88q-143 0 -234 95.5t-91 236.5t91 237.5t234 96.5q123 0 215 -86v71h138v-467q0 -51 34 -51q12 0 23 10zM418 825q82 0 134 52.5t52 142.5t-52 143.5t-134 53.5q-80 0 -132.5 -57.5t-52.5 -139.5 t52.5 -138.5t132.5 -56.5z" glyph-name="ordfeminine.aalt" horiz-adv-x="927"/><glyph d="M1264 768v-168h-170q55 -82 55 -186q0 -201 -150.5 -327t-388 -126t-387 127t-149.5 328q0 125 68.5 221t185.5 154q-137 86 -138 249q0 150 110 244t288 94q256 0 401 -204v-17l-121 -94h-18q-90 141 -250 141q-92 0 -147.5 -46t-55.5 -118q0 -76 57.5 -119.5 t153.5 -43.5h76v-179h-74q-143 0 -230 -76.5t-87 -199.5t88 -200t229 -77q139 0 228.5 77t89.5 200q0 96 -76 178v168h412z" glyph-name="ampersand.aalt" horiz-adv-x="1294"/><glyph d="M-293 1446l17 12h182l12 -12l-123 -387l-16 -12h-113l-12 12z" glyph-name="glyph370" horiz-adv-x="0"/><glyph d="M500 1522h16l94 -152v-16l-438 -207h-16l-60 96v17z" glyph-name="acute.aalt" horiz-adv-x="661"/><glyph d="M397 1171q-127 0 -216 84t-103 218h164q10 -72 51 -113t104.5 -41t104.5 41t51 113h164q-14 -133 -103.5 -217.5t-216.5 -84.5z" glyph-name="breve.aalt" horiz-adv-x="796"/><glyph d="M713 1495l65 -102v-17l-354 -202h-21l-352 202v17l64 102h16l285 -139l282 139h15z" glyph-name="caron.aalt" horiz-adv-x="829"/><glyph d="M418 1503l356 -200v-17l-67 -108h-17l-282 137l-283 -137h-16l-68 108v17l356 200h21z" glyph-name="circumflex.aalt" horiz-adv-x="829"/><glyph d="M236 1178q-63 0 -107.5 44t-44.5 105q0 63 44 107.5t108 44.5q61 0 105 -44t44 -108q0 -61 -44 -105t-105 -44zM677.5 1178q-61.5 0 -105.5 44t-44 105q0 63 44 107.5t105.5 44.5t106.5 -44t45 -108q0 -61 -45 -105t-106.5 -44z" glyph-name="dieresis.aalt" horiz-adv-x="913"/><glyph d="M233 1178q-59 0 -105 46t-46 105q0 63 45 108.5t106 45.5q63 0 108.5 -45t45.5 -109q0 -61 -46.5 -106t-107.5 -45z" glyph-name="dotaccent.aalt" horiz-adv-x="468"/><glyph d="M186 1522l406 -262v-17l-62 -96h-16l-438 207v16l94 152h16z" glyph-name="grave.aalt" horiz-adv-x="661"/><glyph d="M260 1466h199l10 -16l-240 -322h-145l-8 15zM606 1466h197l10 -16l-240 -322h-145l-8 15z" glyph-name="hungarumlaut.aalt" horiz-adv-x="890"/><glyph d="M82 1362h625v-162h-625v162z" glyph-name="macron.aalt" horiz-adv-x="786"/><glyph d="M276.5 1135q-92.5 0 -159 64.5t-66.5 156.5t66.5 156.5t159 64.5t159 -64.5t66.5 -156.5t-66.5 -156.5t-159 -64.5zM276 1264q35 0 63 27.5t28 64.5t-28 64.5t-63 27.5q-37 0 -63.5 -27.5t-26.5 -64.5q0 -39 26.5 -65.5t63.5 -26.5z" glyph-name="ring.aalt" horiz-adv-x="550"/><glyph d="M686 1202q-66 0 -181.5 39t-170.5 39q-104 0 -141 -76h-11l-14 10v158q49 84 174 84q63 0 183 -39t169 -39q109 0 140 76h10l16 -10v-158q-51 -84 -174 -84z" glyph-name="tilde.aalt" horiz-adv-x="968"/><glyph d="M57 1458l-59 96v15l403 264h17l94 -152v-16l-438 -207h-17zM1042 1458l-61 96v15l405 264h15l94 -152v-16l-438 -207h-15zM174 0v1331h227v-1331h-227zM915 -25q-270 0 -417 205v19l135 127h18q102 -145 252 -146q100 0 163.5 67.5t63.5 188.5v895h228v-870 q0 -242 -121 -364t-322 -122z" glyph-name="glyph382" horiz-adv-x="1517"/><glyph d="M72 1458l-60 96v15l404 264h16l94 -152v-16l-438 -207h-16zM864 1458l-61 96v15l405 264h17l92 -152v-16l-436 -207h-17zM174 0v1331h227v-1331h-227zM918 -25q-270 0 -418 205v19l137 127h16q98 -145 252 -146q98 0 163 67.5t65 188.5v703h-367v192h592v-870 q0 -242 -119.5 -364t-320.5 -122z" glyph-name="glyph383" horiz-adv-x="1517"/><glyph d="M598 1155l-63 100v13l391 280h14l98 -155v-13l-428 -225h-12zM72 1155l-66 100v13l385 278h15l98 -153v-13l-418 -225h-14zM152 0v1024h221v-1024h-221zM621 -340l-82 162v16q84 45 114.5 99.5t30.5 168.5v918h223v-920q0 -184 -58 -278t-210 -166h-18z" glyph-name="glyph384" horiz-adv-x="1054"/><glyph d="M109 -106l-11 18l1032 1550h209l11 -18l-1031 -1550h-210z" glyph-name="glyph385" horiz-adv-x="1337"/><glyph d="M53 55l-10 19l856 1229h205l10 -19l-854 -1229h-207z" glyph-name="glyph386" horiz-adv-x="1159"/><glyph d="M778 748l-712 -351l-19 9v180l715 350l16 -8v-180z" glyph-name="glyph387" horiz-adv-x="804"/><glyph d="M98 414l-16 10v156l573 297l19 -9v-155z" glyph-name="glyph388" horiz-adv-x="755"/><glyph d="M98 1094h1323v-154h-1323v154z" glyph-name="glyph389" horiz-adv-x="1548"/><glyph d="M61 592v141h625v-141h-625z" glyph-name="glyph390" horiz-adv-x="747"/></font>
</defs>
</svg>
